<?xml version="1.0" standalone="no"?>
<!DOCTYPE svg PUBLIC "-//W3C//DTD SVG 1.1//EN" "http://www.w3.org/Graphics/SVG/1.1/DTD/svg11.dtd" >
<svg xmlns="http://www.w3.org/2000/svg">
<metadata></metadata>
<defs>
<font id="open_sans_webbold" horiz-adv-x="2048" >
<font-face units-per-em="2048" ascent="1638" descent="-410" />
<missing-glyph horiz-adv-x="532" />
<glyph horiz-adv-x="0" />
<glyph unicode="&#xd;" />
<glyph />
<glyph />
<glyph unicode=" "  horiz-adv-x="532" />
<glyph unicode="&#x09;" horiz-adv-x="532" />
<glyph unicode="&#xa0;" horiz-adv-x="532" />
<glyph unicode="!" horiz-adv-x="586" d="M117 143q0 85 44.5 127.5t131.5 42.5q84 0 129 -44t45 -126q0 -79 -46 -124t-128 -45q-85 0 -130.5 44t-45.5 125zM121 1462h346l-51 -977h-244z" />
<glyph unicode="&#x22;" horiz-adv-x="967" d="M133 1462h279l-41 -528h-197zM555 1462h279l-41 -528h-197z" />
<glyph unicode="#" horiz-adv-x="1323" d="M45 406v206h277l47 232h-252v209h289l77 407h219l-77 -407h198l78 407h215l-78 -407h240v-209h-279l-47 -232h258v-206h-297l-77 -406h-220l78 406h-194l-76 -406h-215l74 406h-238zM539 612h196l47 232h-196z" />
<glyph unicode="$" horiz-adv-x="1169" d="M88 1049q0 145 113 238q114 94 317 114v153h137v-149q115 -5 218 -27.5t196 -64.5l-94 -234q-156 64 -320 78v-295q196 -75 277 -130q84 -55 122 -121t38 -154q0 -159 -115 -256q-115 -95 -322 -115v-204h-137v200q-242 4 -428 86v264q44 -22 96 -40.5t113 -35.5 q123 -33 219 -39v310l-67 26q-197 76 -281 169q-82 91 -82 227zM389 1049q0 -44 30.5 -72.5t98.5 -58.5v235q-129 -20 -129 -104zM655 324q136 22 136 118q0 42 -33.5 71t-102.5 60v-249z" />
<glyph unicode="%" horiz-adv-x="1845" d="M63 1026q0 457 345 457q169 0 259.5 -118.5t90.5 -338.5q0 -230 -89 -345.5t-261 -115.5q-166 0 -255.5 117.5t-89.5 343.5zM315 1024q0 -128 22 -190t73 -62q96 0 96 252q0 250 -96 250q-51 0 -73 -61t-22 -189zM395 0l811 1462h240l-811 -1462h-240zM1087 442 q0 457 345 457q169 0 259.5 -118.5t90.5 -338.5q0 -230 -88.5 -344.5t-261.5 -114.5q-166 0 -255.5 117.5t-89.5 341.5zM1339 440q0 -128 22 -190t73 -62q96 0 96 252q0 250 -96 250q-51 0 -73 -61t-22 -189z" />
<glyph unicode="&#x26;" horiz-adv-x="1536" d="M82 395q0 137 60 233q61 97 208 181q-38 43 -65 83.5t-44 81t-25.5 82.5t-8.5 89q0 152 116 245q117 93 312 93q184 0 297 -87q112 -87 112 -231q0 -119 -69 -217.5t-223 -187.5l284 -277q71 117 123 301h318q-36 -136 -98.5 -263.5t-143.5 -227.5l301 -293h-377 l-115 113q-96 -67 -203.5 -99.5t-228.5 -32.5q-246 0 -387 111q-143 113 -143 303zM403 424q0 -86 64 -137t166 -51q127 0 227 61l-332 330q-58 -45 -91.5 -92.5t-33.5 -110.5zM489 1124q0 -87 95 -194q86 48 132 94.5t46 108.5q0 54 -36 84t-93 30q-67 0 -105.5 -31.5 t-38.5 -91.5z" />
<glyph unicode="'" horiz-adv-x="545" d="M133 1462h279l-41 -528h-197z" />
<glyph unicode="(" horiz-adv-x="694" d="M82 561q0 266 77 496t224 405h250q-142 -194 -213.5 -424t-71.5 -475q0 -246 73 -474q74 -228 210 -412h-248q-148 171 -224.5 396t-76.5 488z" />
<glyph unicode=")" horiz-adv-x="694" d="M61 1462h250q148 -177 224 -407q77 -233 77 -494q0 -265 -77 -490t-224 -394h-248q136 186 209 411q74 231 74 475q0 245 -71.5 475t-213.5 424z" />
<glyph unicode="*" horiz-adv-x="1116" d="M63 1042l39 250l365 -104l-41 368h262l-41 -368l373 104l33 -252l-340 -24l223 -297l-227 -121l-156 313l-137 -311l-236 119l221 297z" />
<glyph unicode="+" horiz-adv-x="1169" d="M88 612v219h387v390h219v-390h387v-219h-387v-385h-219v385h-387z" />
<glyph unicode="," horiz-adv-x="594" d="M63 -263q32 134 57.5 258.5t43.5 242.5h280l15 -23q-26 -102 -69.5 -220t-106.5 -258h-220z" />
<glyph unicode="-" horiz-adv-x="659" d="M61 424v250h537v-250h-537z" />
<glyph unicode="." horiz-adv-x="584" d="M117 143q0 85 44.5 127.5t131.5 42.5q84 0 129 -44t45 -126q0 -79 -46 -124t-128 -45q-85 0 -130.5 44t-45.5 125z" />
<glyph unicode="/" horiz-adv-x="846" d="M14 0l545 1462h277l-545 -1462h-277z" />
<glyph unicode="0" horiz-adv-x="1169" d="M74 731q0 193 31 335t94 235t159 138.5t226 45.5q253 0 382.5 -192t129.5 -562q0 -383 -125.5 -566.5t-386.5 -183.5q-253 0 -381.5 189.5t-128.5 560.5zM381 731q0 -270 46 -386q47 -116 157 -116q108 0 156 118t48 384q0 267 -49 386q-49 118 -155 118 q-110 0 -156 -118q-47 -118 -47 -386z" />
<glyph unicode="1" horiz-adv-x="1169" d="M121 1087l471 375h254v-1462h-309v846l3 139l5 152q-77 -77 -107 -101l-168 -135z" />
<glyph unicode="2" horiz-adv-x="1169" d="M78 1274q110 93 179 130q72 38 155 58t188 21q102 1 187.5 -28.5t147 -82t95.5 -125.5t33 -160q-1 -51 -9.5 -98t-26.5 -92q-34 -86 -110 -181q-37 -47 -102.5 -112t-159.5 -153l-188 -177v-14h637v-260h-1022v215l367 371q163 166 213 231t72 120t22 114q0 88 -48.5 131 t-129.5 43q-85 0 -165 -39t-167 -111z" />
<glyph unicode="3" horiz-adv-x="1169" d="M78 59v263q85 -43 187 -70t202 -27q154 0 226.5 52t72.5 167q0 51 -20.5 87t-63.5 58.5t-109.5 33t-158.5 10.5h-111v237h113q85 0 147 10.5t102 34t59 61t19 91.5q0 166 -208 166q-72 0 -146.5 -24t-165.5 -83l-143 213q199 144 477 144q227 0 358 -92q132 -92 132 -256 q0 -138 -82.5 -233.5t-233.5 -131.5v-6q178 -22 268.5 -107t90.5 -231q0 -211 -153 -329q-152 -116 -437 -116q-120 0 -224.5 19t-197.5 59z" />
<glyph unicode="4" horiz-adv-x="1169" d="M35 303v215l641 944h285v-919h176v-240h-176v-303h-302v303h-624zM307 543h352v248q0 31 1.5 75.5t3.5 104.5t4 93.5t4 43.5h-8q-19 -42 -41 -81.5t-48 -78.5z" />
<glyph unicode="5" horiz-adv-x="1169" d="M100 59v267q80 -42 184 -69q107 -26 199 -26q283 0 283 232q0 221 -293 221q-26 0 -55.5 -3t-61.5 -8q-66 -11 -104 -22l-123 66l55 745h793v-262h-522l-27 -287l35 7q31 6 68.5 10t82.5 4q212 0 337 -119q126 -119 126 -326q0 -245 -151 -377q-150 -131 -432 -131 q-123 0 -221 19t-173 59z" />
<glyph unicode="6" horiz-adv-x="1169" d="M72 621q1 434 184 646t549 212q125 0 196 -15v-247q-91 20 -176 20q-160 0 -260 -48q-101 -48 -150 -142q-50 -96 -59 -267h13q99 170 317 170q196 0 307 -123t111 -340q0 -235 -132 -371q-66 -69 -157 -101.5t-209 -33.5q-121 0 -220 42.5t-168.5 124.5t-107.5 201.5 t-38 271.5zM379 510q0 -118 62 -201q63 -82 159 -82q100 0 152.5 66t52.5 190q0 108 -49.5 169t-149.5 61q-94 0 -161 -61q-66 -62 -66 -142z" />
<glyph unicode="7" horiz-adv-x="1169" d="M55 1200v260h1049v-194l-553 -1266h-324l549 1200h-721z" />
<glyph unicode="8" horiz-adv-x="1169" d="M72 371q0 125 66.5 222t213.5 171q-125 79 -180 169t-55 197q0 157 130 254t339 97q106 0 190 -24t148 -72q129 -96 129 -257q0 -112 -62 -199.5t-200 -156.5q82 -44 140.5 -89.5t95.5 -94t54 -100.5t17 -109q0 -181 -141 -290q-139 -108 -371 -108q-242 0 -377 101 q-137 102 -137 289zM358 389q0 -87 59.5 -134.5t164.5 -47.5q115 0 172 49.5t57 130.5q0 67 -56.5 125.5t-183.5 124.5q-213 -98 -213 -248zM408 1106q0 -61 38 -108t140 -97q49 23 82.5 46t54.5 48t30 52t9 59q0 34 -13 62t-37 47t-56.5 29.5t-71.5 10.5q-79 0 -127.5 -40 t-48.5 -109z" />
<glyph unicode="9" horiz-adv-x="1169" d="M66 971q0 235 133 371q133 135 364 137q121 1 220.5 -43t169.5 -127t108 -202t37 -269q-2 -432 -183 -644.5t-550 -212.5q-66 0 -114.5 3.5t-82.5 10.5v247q84 -21 176 -21q154 0 255 45q50 23 88 58t64.5 85.5t42 116.5t19.5 152h-12q-59 -95 -134 -132 q-78 -38 -190 -38q-191 0 -301 122q-110 124 -110 341zM365 975q0 -106 49 -168t149 -62q94 0 161 61t67 142q0 118 -63 201q-61 82 -159 82q-97 0 -150.5 -65.5t-53.5 -190.5z" />
<glyph unicode=":" horiz-adv-x="584" d="M117 143q0 85 44.5 127.5t131.5 42.5q84 0 129 -44t45 -126q0 -79 -46 -124t-128 -45q-85 0 -130.5 44t-45.5 125zM117 969q0 85 44.5 127.5t131.5 42.5q84 0 129 -44t45 -126q0 -81 -46.5 -125.5t-127.5 -44.5q-85 0 -130.5 44t-45.5 126z" />
<glyph unicode=";" horiz-adv-x="594" d="M63 -263q32 134 57.5 258.5t43.5 242.5h280l15 -23q-26 -102 -69.5 -220t-106.5 -258h-220zM117 969q0 85 44.5 127.5t131.5 42.5q84 0 129 -44t45 -126q0 -81 -46.5 -125.5t-127.5 -44.5q-85 0 -130.5 44t-45.5 126z" />
<glyph unicode="&#x3c;" horiz-adv-x="1169" d="M88 641v143l993 496v-240l-684 -317l684 -281v-239z" />
<glyph unicode="=" horiz-adv-x="1169" d="M88 418v219h993v-219h-993zM88 805v219h993v-219h-993z" />
<glyph unicode="&#x3e;" horiz-adv-x="1169" d="M88 203v239l684 281l-684 317v240l993 -496v-143z" />
<glyph unicode="?" horiz-adv-x="977" d="M6 1358q224 125 473 125q205 0 327 -99t122 -264q0 -110 -50 -190q-49 -78 -190 -180q-97 -71 -122 -108t-25 -97v-60h-265v74q0 96 41 167q41 72 150 151q104 74 138 122q34 46 34 105q0 66 -47.5 99.5t-134.5 33.5q-149 0 -342 -98zM244 143q0 85 44.5 127.5 t131.5 42.5q84 0 129 -44t45 -126q0 -79 -46 -124t-128 -45q-85 0 -130.5 44t-45.5 125z" />
<glyph unicode="@" horiz-adv-x="1837" d="M102 602q0 247 108 448q109 202 309 316q200 115 462 115q220 0 393 -90t267 -256q48 -84 70.5 -179t23.5 -204q0 -108 -26.5 -203t-75.5 -165.5t-117.5 -111.5t-151.5 -39q-75 2 -131.5 36.5t-81.5 92.5h-16q-108 -129 -275 -129q-177 0 -279 106t-102 292 q0 211 134 340q133 129 350 129q43 0 90 -4.5t99 -12.5q103 -17 171 -39l-23 -489q-3 -70 17.5 -104.5t58.5 -34.5q64 0 102 93q19 48 28 108.5t10 136.5q1 121 -38 221t-110.5 171t-169.5 109t-215 37q-102 -2 -189 -21.5t-162 -61.5q-150 -83 -229 -240q-79 -155 -79 -361 q0 -138 37.5 -244.5t110 -179t180 -110t247.5 -37.5q53 0 112 6t121 17.5t125 28.5t125 40v-191q-213 -91 -475 -91q-379 0 -593 199q-212 200 -212 556zM711 627q0 -211 172 -211q90 0 138 63.5t56 206.5l13 221q-53 11 -115 11q-63 0 -112 -20t-82.5 -58t-51.5 -92 t-18 -121z" />
<glyph unicode="A" horiz-adv-x="1413" d="M0 0l516 1468h379l518 -1468h-334l-106 348h-533l-106 -348h-334zM518 608h381l-166 535q-10 31 -16 55.5t-10 42.5q-33 -128 -189 -633z" />
<glyph unicode="B" horiz-adv-x="1376" d="M184 0v1462h455q311 0 451 -89q141 -89 141 -281q0 -130 -62 -215t-163 -101v-10q139 -31 200.5 -116t61.5 -226q0 -200 -145 -312q-143 -112 -392 -112h-547zM494 256h202q129 0 189.5 48.5t60.5 150.5q0 182 -260 182h-192v-381zM494 883h180q126 0 182.5 39t56.5 129 q0 84 -61.5 120.5t-194.5 36.5h-163v-325z" />
<glyph unicode="C" horiz-adv-x="1305" d="M119 729v7q0 168 47 304q48 140 138 238t217 152q125 53 278 53h6q107 -2 213.5 -26.5t214.5 -76.5l-100 -252q-82 39 -164.5 68t-163.5 29q-175 0 -271 -132q-96 -131 -96 -366q0 -489 367 -489q153 0 373 77v-260q-178 -74 -402 -74q-320 0 -488 192q-85 97 -126 235.5 t-43 320.5z" />
<glyph unicode="D" horiz-adv-x="1516" d="M184 0v1462h459q358 0 556 -189t198 -528q0 -361 -206 -553t-593 -192h-414zM494 256h133q448 0 448 481q0 471 -416 471h-165v-952z" />
<glyph unicode="E" horiz-adv-x="1147" d="M184 0v1462h842v-254h-532v-321h495v-254h-495v-377h532v-256h-842z" />
<glyph unicode="F" horiz-adv-x="1124" d="M184 0v1462h838v-254h-533v-377h496v-253h-496v-578h-305z" />
<glyph unicode="G" horiz-adv-x="1483" d="M119 733q0 354 202 552t562 198q225 0 434 -90l-103 -248q-162 80 -333 80q-201 0 -322 -135q-121 -134 -121 -363q0 -239 97 -364t284 -125q49 0 97.5 5t99.5 15v305h-277v258h580v-758q-71 -23 -136.5 -38.5t-129 -25.5t-126.5 -14t-128 -4q-332 0 -506 193t-174 559z " />
<glyph unicode="H" horiz-adv-x="1567" d="M184 0v1462h310v-573h579v573h309v-1462h-309v631h-579v-631h-310z" />
<glyph unicode="I" horiz-adv-x="678" d="M184 0v1462h310v-1462h-310z" />
<glyph unicode="J" horiz-adv-x="678" d="M-151 -149q82 -20 146 -20q101 0 145 63.5t44 197.5v1370h310v-1368q0 -255 -117 -389t-346 -134q-106 0 -182 22v258z" />
<glyph unicode="K" horiz-adv-x="1360" d="M184 0v1462h310v-669l122 172l396 497h344l-510 -647l514 -815h-352l-383 616l-131 -94v-522h-310z" />
<glyph unicode="L" horiz-adv-x="1157" d="M184 0v1462h310v-1206h593v-256h-903z" />
<glyph unicode="M" horiz-adv-x="1931" d="M184 0v1462h422l346 -1118h6l367 1118h422v-1462h-289v692v53t1 60t4.5 116.5t9.5 223.5h-9l-377 -1145h-284l-352 1147h-9q10 -176 14.5 -292t4.5 -175v-680h-277z" />
<glyph unicode="N" horiz-adv-x="1665" d="M184 0v1462h391l635 -1095h7q-15 285 -15 403v692h279v-1462h-394l-636 1106h-9q10 -147 14.5 -251t4.5 -167v-688h-277z" />
<glyph unicode="O" horiz-adv-x="1630" d="M119 735q0 365 180 557q181 193 518 193q336 0 515 -194t179 -558q0 -363 -180 -558q-179 -194 -516 -194t-516 194q-180 195 -180 560zM444 733q0 -493 371 -493t371 493q0 494 -369 494q-186 0 -279.5 -123.5t-93.5 -370.5z" />
<glyph unicode="P" horiz-adv-x="1286" d="M184 0v1462h467q266 0 404.5 -114.5t138.5 -341.5q0 -237 -148 -361q-148 -125 -419 -125h-133v-520h-310zM494 774h102q144 0 214.5 56t70.5 165t-59.5 161t-186.5 52h-141v-434z" />
<glyph unicode="Q" horiz-adv-x="1630" d="M119 735q0 365 180 557q181 193 518 193q336 0 515 -194t179 -558q0 -260 -91 -433.5t-269 -254.5l352 -392h-397l-268 328h-23q-337 0 -516 194q-180 195 -180 560zM444 733q0 -493 371 -493t371 493q0 494 -369 494q-186 0 -279.5 -123.5t-93.5 -370.5z" />
<glyph unicode="R" horiz-adv-x="1352" d="M184 0v1462h426q298 0 441 -108.5t143 -329.5q0 -130 -70.5 -230t-201.5 -157q166 -248 272.5 -406.5t157.5 -230.5h-344l-349 561h-165v-561h-310zM494 813h100q148 0 217.5 48.5t69.5 154.5q0 104 -71.5 148t-221.5 44h-94v-395z" />
<glyph unicode="S" horiz-adv-x="1128" d="M94 68v288q149 -66 250 -93q103 -27 188 -27q103 0 157 38.5t54 116.5q0 43 -24 76q-12 17 -30 33t-41 32q-47 31 -189 99q-135 64 -201 121q-67 58 -107 135t-40 180q0 194 131 305q132 111 364 111q114 0 217.5 -27t216.5 -76l-100 -241q-59 24 -107.5 40.5t-86.5 26.5 q-75 19 -150 19q-88 0 -135 -41t-47 -107q0 -41 19 -72q20 -31 60 -59q41 -28 197 -102q103 -49 173 -98t108 -99q76 -97 76 -241q0 -198 -143 -312q-141 -113 -396 -113q-118 0 -220.5 21t-193.5 66z" />
<glyph unicode="T" horiz-adv-x="1186" d="M41 1204v258h1104v-258h-397v-1204h-310v1204h-397z" />
<glyph unicode="U" horiz-adv-x="1548" d="M174 520v942h309v-895q0 -84 16.5 -146t51.5 -102t91 -59.5t134 -19.5q152 0 220.5 79.5t68.5 249.5v893h309v-946q0 -122 -42 -221t-120 -169q-80 -70 -192 -108q-110 -37 -245 -37h-7q-142 1 -251 36t-187 107q-156 145 -156 396z" />
<glyph unicode="V" horiz-adv-x="1331" d="M0 1462h313l275 -870q12 -38 23 -83t24 -97q12 -51 20 -86.5t11 -55.5q5 46 22 127t53 195l277 870h313l-497 -1462h-338z" />
<glyph unicode="W" horiz-adv-x="1980" d="M0 1462h305l187 -798q26 -111 43 -206.5t28 -176.5q6 58 27 176q11 60 21.5 106.5t19.5 79.5l213 819h293l213 -819q8 -28 16 -69.5t19 -98.5t19 -105t13 -89q5 39 13 87.5t19 106.5q11 59 21.5 106t18.5 83l186 798h305l-372 -1462h-353l-198 768q-5 20 -15 62.5 t-23 106.5q-14 65 -21 108t-9 65q-6 -54 -30 -174q-12 -60 -21 -102t-16 -68l-197 -766h-352z" />
<glyph unicode="X" horiz-adv-x="1366" d="M0 0l485 754l-454 708h342l315 -526l309 526h334l-459 -725l494 -737h-354l-340 553l-340 -553h-332z" />
<glyph unicode="Y" horiz-adv-x="1278" d="M0 1462h336l303 -602l305 602h334l-485 -893v-569h-308v559z" />
<glyph unicode="Z" horiz-adv-x="1186" d="M49 0v201l701 1005h-682v256h1050v-200l-700 -1006h719v-256h-1088z" />
<glyph unicode="[" horiz-adv-x="678" d="M143 -323v1785h484v-211h-224v-1363h224v-211h-484z" />
<glyph unicode="\" horiz-adv-x="846" d="M12 1462h277l545 -1462h-277z" />
<glyph unicode="]" horiz-adv-x="678" d="M51 -112h223v1363h-223v211h484v-1785h-484v211z" />
<glyph unicode="^" horiz-adv-x="1090" d="M8 520l438 950h144l495 -950h-239l-322 643l-280 -643h-236z" />
<glyph unicode="_" horiz-adv-x="842" d="M-3 -183h849v-140h-849v140z" />
<glyph unicode="`" horiz-adv-x="1243" d="M332 1548v21h342q32 -51 90 -126t145 -175v-27h-202q-32 22 -78 57.5t-107 84.5q-61 50 -108.5 91t-81.5 74z" />
<glyph unicode="a" horiz-adv-x="1237" d="M86 334q0 178 124.5 263t375.5 93l194 6v49q0 170 -174 170q-134 0 -315 -81l-101 206q194 101 428 101q225 0 345 -98t120 -298v-745h-213l-59 152h-8q-77 -98 -159 -135q-81 -36 -212 -36q-162 0 -254 91q-92 92 -92 262zM399 332q0 -129 148 -129q107 0 169 61 q64 61 64 162v92l-118 -4q-134 -5 -198.5 -48t-64.5 -134z" />
<glyph unicode="b" horiz-adv-x="1296" d="M160 0v1556h305v-362q0 -70 -12 -221h12q106 166 317 166q197 0 310 -155q112 -154 112 -423q0 -277 -116 -429q-115 -151 -314 -151q-197 0 -309 142h-21l-51 -123h-233zM465 563q0 -90 13 -154t40.5 -104.5t69.5 -59t100 -18.5q94 0 149.5 86t55.5 252t-56 248t-153 82 q-57 0 -98 -17t-68 -53t-40 -92.5t-13 -136.5v-33z" />
<glyph unicode="c" horiz-adv-x="1053" d="M92 553q0 142 36 251.5t106 184t172.5 112.5t234.5 38q195 0 348 -76l-90 -236q-72 29 -133.5 47.5t-124.5 18.5q-238 0 -238 -338q0 -328 238 -328q88 0 163 23t150 74v-261q-37 -23 -74.5 -39.5t-75.5 -24.5q-75 -18 -190 -18q-522 0 -522 572z" />
<glyph unicode="d" horiz-adv-x="1296" d="M92 557q0 275 114 428q115 154 316 154q211 0 322 -164h10q-23 127 -23 223v358h306v-1556h-234l-59 145h-13q-103 -164 -317 -164q-198 0 -310 152t-112 424zM401 553q0 -166 57 -248t163 -82q117 0 171 68q28 34 44 91.5t16 139.5v33q0 179 -56 258q-56 78 -180 78 q-103 0 -159 -86t-56 -252z" />
<glyph unicode="e" horiz-adv-x="1210" d="M92 551q0 280 140 434q141 154 389 154q237 0 369 -135t132 -373v-148h-721q5 -131 76.5 -203.5t202.5 -72.5q101 0 191 21t188 67v-236q-40 -20 -82.5 -34.5t-88.5 -24.5q-46 -9 -101 -14t-121 -5q-271 0 -422 148q-152 149 -152 422zM408 686h428q-2 114 -59 175 t-154 61t-152 -61t-63 -175z" />
<glyph unicode="f" horiz-adv-x="793" d="M41 889v147l168 82v82q0 96 23 165t71 114t122.5 66.5t178.5 21.5q157 0 281 -47l-78 -224q-93 29 -170 29q-65 0 -94 -38.5t-29 -98.5v-70h264v-229h-264v-889h-305v889h-168z" />
<glyph unicode="g" horiz-adv-x="1157" d="M6 -181q0 102 62.5 169t185.5 96q-47 20 -82 65q-35 47 -35 97q0 32 9.5 58t27.5 48.5t45 42.5t62 41q-88 38 -139.5 122t-51.5 198q0 91 30 162.5t88.5 120.5t144 74.5t196.5 25.5q46 0 111 -9q65 -8 83 -12h390v-155l-175 -45q48 -75 48 -168q0 -181 -126 -281 q-63 -51 -150 -79q-71 -22 -159 -22q-19 0 -39 1l-55 3l-45 5q-47 -36 -47 -80q0 -66 168 -66h190q185 0 281 -78.5t96 -231.5q0 -196 -164 -304t-469 -108q-235 0 -358 81t-123 229zM270 -157q0 -63 60.5 -99t169.5 -36q82 0 147 11.5t110 33.5t69 53t24 70q0 63 -55 87 t-170 24h-158q-86 0 -141 -39q-56 -39 -56 -105zM381 752q0 -91 41.5 -144t126.5 -53q86 0 126 53t40 144q0 202 -166 202q-168 0 -168 -202z" />
<glyph unicode="h" horiz-adv-x="1346" d="M160 0v1556h305v-317q0 -19 -1 -62t-6 -112l-7 -90h16q102 164 324 164q198 0 299.5 -105.5t101.5 -304.5v-729h-305v653q0 242 -180 242q-64 0 -110 -21t-75 -66t-43 -115t-14 -167v-526h-305z" />
<glyph unicode="i" horiz-adv-x="625" d="M147 1407q0 149 166 149t166 -149q0 -72 -41 -111t-125 -39q-166 0 -166 150zM160 0v1118h305v-1118h-305z" />
<glyph unicode="j" horiz-adv-x="625" d="M-130 -226q69 -19 142 -19q78 0 113 42.5t35 127.5v1193h305v-1238q0 -179 -102.5 -275t-292.5 -96q-118 0 -200 25v240zM147 1407q0 149 166 149t166 -149q0 -72 -41 -111t-125 -39q-166 0 -166 150z" />
<glyph unicode="k" horiz-adv-x="1270" d="M160 0v1556h305v-694l-16 -254h4l133 170l313 340h344l-444 -485l471 -633h-352l-322 453l-131 -105v-348h-305z" />
<glyph unicode="l" horiz-adv-x="625" d="M160 0v1556h305v-1556h-305z" />
<glyph unicode="m" horiz-adv-x="2011" d="M160 0v1118h233l41 -143h17q45 78 129.5 121t195.5 43q251 0 340 -164h27q22 39 56 69.5t76.5 51.5t92.5 32t105 11q190 0 287.5 -97.5t97.5 -312.5v-729h-306v653q0 121 -40 181.5t-128 60.5q-112 0 -167.5 -80t-55.5 -254v-561h-305v653q0 121 -40 181.5t-128 60.5 q-117 0 -170 -86t-53 -283v-526h-305z" />
<glyph unicode="n" horiz-adv-x="1346" d="M160 0v1118h233l41 -143h17q51 81 140 122.5t204 41.5q196 0 296.5 -105t100.5 -305v-729h-305v653q0 121 -43 181.5t-137 60.5q-128 0 -185 -86t-57 -283v-526h-305z" />
<glyph unicode="o" horiz-adv-x="1268" d="M92 561q2 138 36.5 244t106.5 182q142 150 402 152h6q119 1 215 -39q100 -40 171 -116.5t109 -183.5q38 -104 38 -232v-7q-2 -137 -37 -243t-107 -184t-172 -115t-229 -38h-6q-119 0 -215 40q-100 41 -171 117t-109 184q-38 105 -38 232v7zM403 561q0 -166 54.5 -251 t177.5 -85q122 0 175.5 84.5t53.5 251.5q0 166 -54 249t-177 83q-122 0 -176 -82.5t-54 -249.5z" />
<glyph unicode="p" horiz-adv-x="1296" d="M160 -491v1609h248l43 -145h14q106 166 317 166q197 0 310 -153q57 -77 84 -182.5t28 -242.5q0 -135 -30.5 -242.5t-86.5 -183t-135 -115.5q-78 -39 -173 -39h-5q-99 1 -175.5 35.5t-133.5 106.5h-16q8 -70 12 -110t4 -51v-453h-305zM465 563q0 -90 13 -154t40.5 -104.5 t69.5 -59t100 -18.5q205 0 205 338q0 166 -50 248t-159 82q-57 0 -98 -17t-68 -53t-40 -92.5t-13 -136.5v-33z" />
<glyph unicode="q" horiz-adv-x="1296" d="M92 557q0 273 114 428q115 154 314 154q106 0 185 -39.5t139 -124.5h8l27 143h258v-1609h-306v469q0 30 3 71.5t10 95.5h-13q-49 -81 -130 -122.5t-187 -41.5q-198 0 -310 151q-112 152 -112 425zM403 553q0 -169 53 -251.5t167 -82.5q116 0 170 66q27 34 43 91.5 t16 141.5v37q0 90 -13.5 153.5t-42 104t-73 59.5t-105.5 19q-215 0 -215 -338z" />
<glyph unicode="r" horiz-adv-x="930" d="M160 0v1118h231l45 -188h15q53 95 140 151q88 58 193 58q62 0 103 -9l-23 -286q-36 10 -90 10q-147 0 -228 -74.5t-81 -210.5v-569h-305z" />
<glyph unicode="s" horiz-adv-x="1018" d="M92 827q0 75 29.5 133t86 97.5t139 60.5t188.5 21q204 0 393 -88l-92 -220q-84 36 -157 59t-149 23q-135 0 -135 -73q0 -41 43 -71q45 -31 191 -89q130 -53 192 -99q61 -46 90 -105.5t29 -143.5q0 -173 -119 -262t-358 -89q-61 0 -112.5 4t-96 12t-84 20t-76.5 28v252 q84 -40 191 -67q106 -27 188 -27q166 0 166 96q0 26 -12 45.5t-40 38.5t-74.5 40.5t-115.5 51.5q-64 28 -111.5 52.5t-78.5 47.5q-60 46 -87.5 105.5t-27.5 146.5z" />
<glyph unicode="t" horiz-adv-x="889" d="M47 889v129l168 102l88 236h195v-238h313v-229h-313v-539q0 -66 36.5 -96.5t96.5 -30.5q78 0 192 35v-227q-115 -50 -280 -50q-183 0 -266.5 92t-83.5 277v539h-146z" />
<glyph unicode="u" horiz-adv-x="1346" d="M154 389v729h305v-653q0 -121 43 -181.5t137 -60.5q128 0 185 85t57 284v526h305v-1118h-234l-41 143h-16q-49 -78 -139 -120t-205 -42q-198 0 -297.5 104.5t-99.5 303.5z" />
<glyph unicode="v" horiz-adv-x="1165" d="M0 1118h319l216 -637q20 -60 30 -117.5t15 -111.5h6q2 48 12 105.5t33 123.5l215 637h319l-426 -1118h-313z" />
<glyph unicode="w" horiz-adv-x="1753" d="M20 1118h304l129 -495q17 -66 32 -157.5t31 -209.5h6q2 38 10.5 98t24.5 143l16 85l138 536h336l131 -536q4 -14 8.5 -39t10 -54.5t11 -62.5t10 -64.5t7.5 -59t4 -46.5h6q5 36 13 85t19 112t19 105.5t14 64.5l134 495h299l-322 -1118h-332l-86 391l-116 494h-7l-204 -885 h-328z" />
<glyph unicode="x" horiz-adv-x="1184" d="M10 0l379 571l-360 547h346l217 -356l219 356h346l-364 -547l381 -571h-347l-235 383l-236 -383h-346z" />
<glyph unicode="y" horiz-adv-x="1165" d="M0 1118h334l211 -629q26 -81 37 -194h6q5 52 16.5 100t26.5 94l207 629h327l-473 -1260q-66 -176 -185.5 -262.5t-281.5 -86.5q-40 0 -78.5 4.5t-76.5 12.5v242q53 -13 120 -13q81 0 142 49.5t94 149.5l18 54z" />
<glyph unicode="z" horiz-adv-x="999" d="M55 0v180l518 705h-487v233h834v-198l-504 -687h522v-233h-883z" />
<glyph unicode="{" horiz-adv-x="807" d="M31 449v239q127 0 191.5 44t64.5 126v8v318q0 154 97 215q97 63 341 63v-225q-50 -2 -83 -11t-53.5 -26.5t-29 -43.5t-8.5 -60v-299q0 -94 -59.5 -149.5t-174.5 -72.5v-12q234 -35 234 -212v-9v-299q0 -68 37 -102q38 -35 137 -38v-226q-244 0 -341 63q-97 61 -97 216 v314q0 88 -65 133.5t-191 45.5z" />
<glyph unicode="|" horiz-adv-x="1128" d="M455 -464v2014h219v-2014h-219z" />
<glyph unicode="}" horiz-adv-x="807" d="M82 -97q49 1 82.5 10t54 26t29 43t8.5 61v299v11q0 87 59 140t174 70v12q-114 17 -173.5 72.5t-59.5 149.5v299q0 70 -37 104t-137 37v225q167 0 262 -27q48 -13 81.5 -33.5t54.5 -50.5t30.5 -71t9.5 -96v-318v-10q0 -84 61.5 -126t194.5 -42v-239q-126 0 -191 -41 t-65 -138v-314q0 -111 -41 -169q-41 -57 -135.5 -83.5t-261.5 -26.5v226z" />
<glyph unicode="~" horiz-adv-x="1169" d="M88 551v231q103 109 256 109q73 0 137.5 -16t139.5 -48q128 -55 227 -55q54 0 116.5 32t116.5 89v-231q-100 -109 -256 -109q-68 0 -126 13q-30 7 -67.5 19t-82.5 31q-132 56 -227 56q-55 0 -117.5 -33.5t-116.5 -87.5z" />
<glyph unicode="&#xa0;" />
<glyph unicode="&#xa1;" />
<glyph unicode="&#xa2;" />
<glyph unicode="&#xa3;" />
<glyph unicode="&#xa4;" />
<glyph unicode="&#xa5;" />
<glyph unicode="&#xa6;" />
<glyph unicode="&#xa7;" />
<glyph unicode="&#xa8;" horiz-adv-x="1243" d="M279 1405q0 66 37.5 100.5t101.5 34.5q66 0 103.5 -37t37.5 -98q0 -60 -37.5 -96.5t-103.5 -36.5q-64 0 -101.5 35t-37.5 98zM682 1405q0 70 40.5 102.5t100.5 32.5q66 0 104 -36t38 -99q0 -61 -39 -97t-103 -36q-60 0 -100.5 32.5t-40.5 100.5z" />
<glyph unicode="&#xa9;" />
<glyph unicode="&#xaa;" />
<glyph unicode="&#xab;" />
<glyph unicode="&#xac;" />
<glyph unicode="&#xad;" />
<glyph unicode="&#xae;" />
<glyph unicode="&#xaf;" />
<glyph unicode="&#xb0;" />
<glyph unicode="&#xb1;" />
<glyph unicode="&#xb2;" />
<glyph unicode="&#xb3;" />
<glyph unicode="&#xb4;" />
<glyph unicode="&#xb5;" />
<glyph unicode="&#xb6;" />
<glyph unicode="&#xb7;" horiz-adv-x="584" d="M117 723q0 85 44.5 127.5t131.5 42.5q84 0 129 -44t45 -126q0 -81 -46.5 -125.5t-127.5 -44.5q-85 0 -130.5 44t-45.5 126z" />
<glyph unicode="&#xb8;" />
<glyph unicode="&#xb9;" />
<glyph unicode="&#xba;" />
<glyph unicode="&#xbb;" />
<glyph unicode="&#xbc;" />
<glyph unicode="&#xbd;" />
<glyph unicode="&#xbe;" />
<glyph unicode="&#xbf;" />
<glyph unicode="&#xc0;" />
<glyph unicode="&#xc1;" />
<glyph unicode="&#xc2;" />
<glyph unicode="&#xc3;" />
<glyph unicode="&#xc4;" horiz-adv-x="1413" d="M0 0l516 1468h379l518 -1468h-334l-106 348h-533l-106 -348h-334zM365 1743q0 66 37.5 100.5t101.5 34.5q66 0 103.5 -37t37.5 -98q0 -60 -37.5 -96.5t-103.5 -36.5q-64 0 -101.5 35t-37.5 98zM518 608h381l-166 535q-10 31 -16 55.5t-10 42.5q-33 -128 -189 -633z M768 1743q0 70 40.5 102.5t100.5 32.5q66 0 104 -36t38 -99q0 -61 -39 -97t-103 -36q-60 0 -100.5 32.5t-40.5 100.5z" />
<glyph unicode="&#xc5;" />
<glyph unicode="&#xc6;" />
<glyph unicode="&#xc7;" />
<glyph unicode="&#xc8;" />
<glyph unicode="&#xc9;" />
<glyph unicode="&#xca;" />
<glyph unicode="&#xcb;" />
<glyph unicode="&#xcc;" />
<glyph unicode="&#xcd;" />
<glyph unicode="&#xce;" />
<glyph unicode="&#xcf;" />
<glyph unicode="&#xd0;" />
<glyph unicode="&#xd1;" />
<glyph unicode="&#xd2;" />
<glyph unicode="&#xd3;" />
<glyph unicode="&#xd4;" />
<glyph unicode="&#xd5;" />
<glyph unicode="&#xd6;" horiz-adv-x="1630" d="M119 735q0 365 180 557q181 193 518 193q336 0 515 -194t179 -558q0 -363 -180 -558q-179 -194 -516 -194t-516 194q-180 195 -180 560zM444 733q0 -493 371 -493t371 493q0 494 -369 494q-186 0 -279.5 -123.5t-93.5 -370.5zM474 1743q0 66 37.5 100.5t101.5 34.5 q66 0 103.5 -37t37.5 -98q0 -60 -37.5 -96.5t-103.5 -36.5q-64 0 -101.5 35t-37.5 98zM877 1743q0 70 40.5 102.5t100.5 32.5q66 0 104 -36t38 -99q0 -61 -39 -97t-103 -36q-60 0 -100.5 32.5t-40.5 100.5z" />
<glyph unicode="&#xd7;" />
<glyph unicode="&#xd8;" />
<glyph unicode="&#xd9;" />
<glyph unicode="&#xda;" />
<glyph unicode="&#xdb;" />
<glyph unicode="&#xdc;" horiz-adv-x="1548" d="M174 520v942h309v-895q0 -84 16.5 -146t51.5 -102t91 -59.5t134 -19.5q152 0 220.5 79.5t68.5 249.5v893h309v-946q0 -122 -42 -221t-120.5 -169t-191 -108t-252.5 -37q-142 1 -251 36t-187 107q-156 145 -156 396zM433 1743q0 66 37.5 100.5t101.5 34.5q66 0 103.5 -37 t37.5 -98q0 -60 -37.5 -96.5t-103.5 -36.5q-64 0 -101.5 35t-37.5 98zM836 1743q0 70 40.5 102.5t100.5 32.5q66 0 104 -36t38 -99q0 -61 -39 -97t-103 -36q-60 0 -100.5 32.5t-40.5 100.5z" />
<glyph unicode="&#xdd;" />
<glyph unicode="&#xde;" />
<glyph unicode="&#xdf;" horiz-adv-x="1456" d="M160 0v1139q0 201 146 314q147 114 405 114q243 0 391 -89q147 -89 147 -237q0 -64 -21 -112.5t-53 -86.5t-69 -67t-69 -53t-53 -45t-21 -43q0 -27 27 -53t92 -66q74 -45 123 -80t75 -60q54 -49 79 -110t25 -139q0 -173 -115.5 -259t-344.5 -86q-99 0 -171 14.5 t-132 47.5v242q51 -35 135 -61q81 -25 147 -25q169 0 168 123q0 30 -8 52t-29 42.5t-57.5 43.5t-93.5 56q-63 37 -106.5 69.5t-68.5 61.5q-49 59 -49 141q0 64 35 117t105 102q39 27 65.5 50.5t43 44.5t23.5 42t7 44q0 60 -64 100q-64 41 -163 41q-117 0 -181.5 -52 t-64.5 -149v-1128h-305z" />
<glyph unicode="&#xe0;" />
<glyph unicode="&#xe1;" />
<glyph unicode="&#xe2;" />
<glyph unicode="&#xe3;" />
<glyph unicode="&#xe4;" horiz-adv-x="1237" d="M86 334q0 178 124.5 263t375.5 93l194 6v49q0 170 -174 170q-134 0 -315 -81l-101 206q194 101 428 101q225 0 345 -98t120 -298v-745h-213l-59 152h-8q-77 -98 -159 -135q-81 -36 -212 -36q-162 0 -254 91q-92 92 -92 262zM285 1405q0 66 37.5 100.5t101.5 34.5 q66 0 103.5 -37t37.5 -98q0 -60 -37.5 -96.5t-103.5 -36.5q-64 0 -101.5 35t-37.5 98zM399 332q0 -129 148 -129q107 0 169 61q64 61 64 162v92l-118 -4q-134 -5 -198.5 -48t-64.5 -134zM688 1405q0 70 40.5 102.5t100.5 32.5q66 0 104 -36t38 -99q0 -61 -39 -97t-103 -36 q-60 0 -100.5 32.5t-40.5 100.5z" />
<glyph unicode="&#xe5;" />
<glyph unicode="&#xe6;" />
<glyph unicode="&#xe7;" />
<glyph unicode="&#xe8;" />
<glyph unicode="&#xe9;" />
<glyph unicode="&#xea;" />
<glyph unicode="&#xeb;" />
<glyph unicode="&#xec;" />
<glyph unicode="&#xed;" />
<glyph unicode="&#xee;" />
<glyph unicode="&#xef;" />
<glyph unicode="&#xf0;" />
<glyph unicode="&#xf1;" />
<glyph unicode="&#xf2;" />
<glyph unicode="&#xf3;" />
<glyph unicode="&#xf4;" />
<glyph unicode="&#xf5;" />
<glyph unicode="&#xf6;" horiz-adv-x="1268" d="M92 561q2 138 36.5 244t106.5 182q142 150 402 152q121 1 220.5 -39.5t171 -116.5t110 -183t37.5 -239q-2 -137 -37 -243t-107 -184t-172 -115t-229 -38q-121 -1 -220.5 40t-171 117t-110 183.5t-37.5 239.5zM291 1405q0 66 37.5 100.5t101.5 34.5q66 0 103.5 -37 t37.5 -98q0 -60 -37.5 -96.5t-103.5 -36.5q-64 0 -101.5 35t-37.5 98zM403 561q0 -166 54.5 -251t177.5 -85q122 0 175.5 84.5t53.5 251.5q0 166 -54 249t-177 83q-122 0 -176 -82.5t-54 -249.5zM694 1405q0 70 40.5 102.5t100.5 32.5q66 0 104 -36t38 -99q0 -61 -39 -97 t-103 -36q-60 0 -100.5 32.5t-40.5 100.5z" />
<glyph unicode="&#xf7;" />
<glyph unicode="&#xf8;" />
<glyph unicode="&#xf9;" />
<glyph unicode="&#xfa;" />
<glyph unicode="&#xfb;" />
<glyph unicode="&#xfc;" horiz-adv-x="1346" d="M154 389v729h305v-653q0 -121 43 -181.5t137 -60.5q128 0 185 85t57 284v526h305v-1118h-234l-41 143h-16q-49 -78 -139 -120t-205 -42q-198 0 -297.5 104.5t-99.5 303.5zM326 1405q0 66 37.5 100.5t101.5 34.5q66 0 103.5 -37t37.5 -98q0 -60 -37.5 -96.5t-103.5 -36.5 q-64 0 -101.5 35t-37.5 98zM729 1405q0 70 40.5 102.5t100.5 32.5q66 0 104 -36t38 -99q0 -61 -39 -97t-103 -36q-60 0 -100.5 32.5t-40.5 100.5z" />
<glyph unicode="&#xfd;" />
<glyph unicode="&#xfe;" />
<glyph unicode="&#xff;" />
<glyph unicode="&#x152;" />
<glyph unicode="&#x153;" />
<glyph unicode="&#x178;" />
<glyph unicode="&#x2c6;" />
<glyph unicode="&#x2dc;" />
<glyph unicode="&#x2000;" horiz-adv-x="939" />
<glyph unicode="&#x2001;" horiz-adv-x="1878" />
<glyph unicode="&#x2002;" horiz-adv-x="939" />
<glyph unicode="&#x2003;" horiz-adv-x="1878" />
<glyph unicode="&#x2004;" horiz-adv-x="626" />
<glyph unicode="&#x2005;" horiz-adv-x="469" />
<glyph unicode="&#x2006;" horiz-adv-x="313" />
<glyph unicode="&#x2007;" horiz-adv-x="313" />
<glyph unicode="&#x2008;" horiz-adv-x="234" />
<glyph unicode="&#x2009;" horiz-adv-x="375" />
<glyph unicode="&#x200a;" horiz-adv-x="104" />
<glyph unicode="&#x2010;" horiz-adv-x="659" d="M61 424v250h537v-250h-537z" />
<glyph unicode="&#x2011;" horiz-adv-x="659" d="M61 424v250h537v-250h-537z" />
<glyph unicode="&#x2012;" horiz-adv-x="659" d="M61 424v250h537v-250h-537z" />
<glyph unicode="&#x2013;" />
<glyph unicode="&#x2014;" />
<glyph unicode="&#x2018;" />
<glyph unicode="&#x2019;" />
<glyph unicode="&#x201a;" />
<glyph unicode="&#x201c;" />
<glyph unicode="&#x201d;" />
<glyph unicode="&#x201e;" />
<glyph unicode="&#x2022;" />
<glyph unicode="&#x2026;" />
<glyph unicode="&#x202f;" horiz-adv-x="375" />
<glyph unicode="&#x2039;" />
<glyph unicode="&#x203a;" />
<glyph unicode="&#x205f;" horiz-adv-x="469" />
<glyph unicode="&#x20ac;" horiz-adv-x="1169" d="M66 481v178h118q-2 11 -3.5 26.5t-0.5 35.5l2 53h-116v176h133q38 243 199 382q162 141 405 141q189 0 352 -82l-98 -232q-69 31 -129 48.5t-125 17.5q-123 0 -201.5 -70t-101.5 -205h403v-176h-418l-2 -35v-47l2 -33h355v-178h-338q51 -243 321 -243q143 0 275 57v-256 q-115 -58 -293 -58q-247 0 -403 132q-159 135 -199 368h-137z" />
<glyph unicode="&#x2122;" />
<glyph unicode="&#xe000;" horiz-adv-x="1120" d="M0 0v1120h1120v-1120h-1120z" />
<glyph unicode="&#xfb01;" />
<glyph unicode="&#xfb02;" />
<glyph unicode="&#xfb03;" />
<glyph unicode="&#xfb04;" />
</font>
</defs>
</svg>
