<?xml version="1.0" standalone="no"?>
<!DOCTYPE svg PUBLIC "-//W3C//DTD SVG 1.1//EN" "http://www.w3.org/Graphics/SVG/1.1/DTD/svg11.dtd" >
<svg xmlns="http://www.w3.org/2000/svg">
<metadata></metadata>
<defs>
<font id="open_sans_condensedbold" horiz-adv-x="948" >
<font-face units-per-em="2048" ascent="1638" descent="-410" />
<missing-glyph horiz-adv-x="506" />
<glyph horiz-adv-x="0" />
<glyph unicode="&#xd;" horiz-adv-x="1044" />
<glyph unicode=" "  horiz-adv-x="506" />
<glyph unicode="&#x09;" horiz-adv-x="506" />
<glyph unicode="&#xa0;" horiz-adv-x="506" />
<glyph unicode="!" horiz-adv-x="555" d="M111 137q0 79 42 121.5t123 42.5t123.5 -42.5t42.5 -121.5q0 -78 -43.5 -120.5t-122.5 -42.5q-80 0 -122.5 42.5t-42.5 120.5zM119 1462h319l-51 -991h-219z" />
<glyph unicode="&#x22;" horiz-adv-x="913" d="M121 1462h262l-41 -528h-180zM530 1462h263l-41 -528h-181z" />
<glyph unicode="#" horiz-adv-x="1114" d="M41 410v194h217l37 252h-201v193h230l59 413h188l-59 -413h182l62 413h188l-59 -413h190v-193h-219l-37 -252h203v-194h-229l-60 -410h-192l61 410h-182l-58 -410h-192l59 410h-188zM449 604h180l37 252h-183z" />
<glyph unicode="$" d="M74 170v246q176 -103 340 -111v338l-35 16q-166 76 -238 167q-67 86 -67 218q0 150 89 241.5t251 109.5v161h116v-159q157 -11 308 -86l-80 -213q-129 62 -228 71v-317q31 -12 31 -14q129 -56 190 -107q123 -100 123 -274q0 -159 -89.5 -254.5t-254.5 -112.5v-208h-116 v204q-190 6 -340 84zM309 1044q0 -51 24 -82.5t81 -54.5v262q-105 -17 -105 -125zM530 311q109 19 109 140q0 45 -20 74q-20 31 -89 65v-279z" />
<glyph unicode="%" horiz-adv-x="1554" d="M63 1022q0 461 289 461q295 0 295 -457q0 -226 -75.5 -343.5t-219.5 -117.5q-148 0 -218.5 114t-70.5 343zM276 1024q0 -140 18 -203t60 -63t61 63.5t19 202.5q0 138 -19.5 202t-60.5 64q-42 0 -60 -63t-18 -203zM371 0l602 1462h209l-604 -1462h-207zM907 438 q0 461 289 461q295 0 295 -457q0 -225 -75.5 -342t-219.5 -117q-149 0 -219 112.5t-70 342.5zM1120 440q0 -140 18 -203t60 -63t61 63.5t19 202.5q0 138 -19.5 201.5t-60.5 63.5t-59.5 -63t-18.5 -202z" />
<glyph unicode="&#x26;" horiz-adv-x="1190" d="M59 391q0 248 244 416q-76 118 -102 188q-25 68 -25 146q0 156 97 249t255 93q152 0 242 -87q90 -86 90 -239q0 -107 -56.5 -201.5t-182.5 -189.5l204 -287q48 88 86 289h232q-37 -278 -166 -498l194 -270h-299l-71 102q-136 -121 -338 -121q-193 0 -298 108 q-106 109 -106 302zM328 416q0 -93 44 -146t120 -53q99 0 176 74l-240 346q-100 -90 -100 -221zM424 1130q0 -50 20.5 -95.5t61.5 -100.5q61 46 84 91q24 43 24 108q0 62 -25.5 93t-64.5 31q-47 0 -73.5 -33t-26.5 -94z" />
<glyph unicode="'" horiz-adv-x="504" d="M121 1462h262l-41 -528h-180z" />
<glyph unicode="(" horiz-adv-x="666" d="M74 561q0 265 77.5 496t223.5 405h235q-139 -191 -211.5 -422t-72.5 -477q0 -247 75 -477q76 -230 207 -409h-233q-147 170 -224 396.5t-77 487.5z" />
<glyph unicode=")" horiz-adv-x="666" d="M55 1462h236q148 -177 224 -407q77 -233 77 -494q0 -263 -77.5 -489.5t-223.5 -394.5h-234q136 186 209 411q74 231 74 475q0 246 -72.5 477t-212.5 422z" />
<glyph unicode="*" horiz-adv-x="952" d="M53 1114l37 221l303 -86l-37 307h238l-37 -307l311 86l33 -225l-285 -18l185 -246l-199 -109l-129 260l-117 -260l-204 109l182 246z" />
<glyph unicode="+" horiz-adv-x="918" d="M106 618v207h254v373h197v-373h254v-207h-254v-368h-197v368h-254z" />
<glyph unicode="," horiz-adv-x="553" d="M51 -263q66 271 101 501h264l14 -23q-53 -203 -176 -478h-203z" />
<glyph unicode="-" horiz-adv-x="647" d="M72 432v234h503v-234h-503z" />
<glyph unicode="." horiz-adv-x="553" d="M111 137q0 79 42 121.5t123 42.5t123.5 -42.5t42.5 -121.5q0 -78 -43.5 -120.5t-122.5 -42.5q-80 0 -122.5 42.5t-42.5 120.5z" />
<glyph unicode="/" horiz-adv-x="829" d="M16 0l545 1462h256l-545 -1462h-256z" />
<glyph unicode="0" d="M74 731q0 397 97 575q98 179 304 179q211 0 305 -175t94 -579q0 -397 -96 -574q-94 -176 -307 -176t-305 177q-92 179 -92 573zM346 731q0 -305 26 -414q27 -106 101 -106q50 0 77 46q28 46 40 152q12 107 12 322q0 304 -28 412q-29 110 -101 110q-74 0 -101 -110 q-26 -112 -26 -412z" />
<glyph unicode="1" d="M98 1102l389 360h242v-1462h-268v858q0 134 14 322q-8 -11 -52 -61q-40 -47 -173 -183z" />
<glyph unicode="2" d="M61 1276q107 120 195 163q91 44 195 44q177 0 276 -104q100 -103 100 -289q0 -160 -73 -310q-36 -76 -91 -157q-60 -87 -284 -373v-8h479v-242h-784v203l260 368q106 151 147 225q78 146 78 281q0 82 -36.5 125t-98.5 43q-53 0 -99 -28q-47 -29 -112 -101z" />
<glyph unicode="3" d="M63 49v244q143 -86 291 -86q118 0 176 54t58 169q0 219 -269 219h-83v203h79q120 0 183 56.5t63 166.5q0 86 -40 131t-115 45q-114 0 -220 -96l-123 180q148 148 373 148q186 0 289 -94q104 -93 104 -256q0 -137 -68 -231t-192 -130v-8q140 -22 214.5 -109t74.5 -233 q0 -202 -126 -322q-123 -119 -343 -119q-196 0 -326 68z" />
<glyph unicode="4" d="M37 307v221l442 934h291v-930h148v-225h-148v-307h-256v307h-477zM266 532h248v308l5 136l7 130h-8q-31 -99 -76 -197z" />
<glyph unicode="5" d="M90 53v254q51 -37 131 -66q80 -28 150 -28q215 0 215 250q0 233 -209 233q-82 0 -176 -32l-88 65l45 733h624v-243h-391l-20 -316q55 12 129 12q165 0 262 -115q98 -116 98 -315q0 -238 -122 -372q-120 -132 -337 -132q-195 0 -311 72z" />
<glyph unicode="6" d="M74 621q0 448 139 653q139 207 424 207q92 0 158 -17v-225q-67 16 -136 16q-113 0 -187 -50q-74 -49 -111 -150q-39 -102 -46 -279h11q71 168 237 168q148 0 229.5 -120t81.5 -341q0 -231 -108 -368q-107 -134 -293 -134q-196 0 -297.5 162t-101.5 478zM344 510 q0 -145 34 -223t97 -78q62 0 97.5 68t35.5 204q0 116 -33 180t-98 64q-59 0 -96 -61t-37 -154z" />
<glyph unicode="7" d="M80 1219v241h784v-184l-403 -1276h-281l410 1219h-510z" />
<glyph unicode="8" d="M72 371q0 250 219 391q-106 85 -149 167q-44 84 -44 191q0 164 105 262q106 99 272 99q172 0 273 -97q102 -98 102 -264q0 -105 -49 -188.5t-160 -157.5q126 -89 181 -184t55 -211q0 -179 -110 -289q-109 -109 -292 -109q-190 0 -296 100q-107 102 -107 290zM330 385 q0 -89 37 -140.5t104 -51.5q73 0 110 51t37 141q0 63 -29 119q-18 35 -112 129l-14 14q-67 -50 -100 -112t-33 -150zM358 1110q0 -66 24 -115q23 -48 93 -104q64 50 89.5 100.5t25.5 118.5q0 160 -117 160q-115 0 -115 -160z" />
<glyph unicode="9" d="M68 973q0 234 107 371q108 137 288 137q196 0 300.5 -169t104.5 -487q0 -844 -565 -844q-96 0 -156 16v228q66 -22 127 -22q168 0 254 117t95 364h-9q-33 -80 -92.5 -124t-140.5 -44q-148 0 -231 122q-82 121 -82 335zM334 979q0 -117 31.5 -180.5t93.5 -63.5q57 0 99 65 q42 66 42 150q0 131 -37 214q-37 85 -98 85q-62 0 -96.5 -67t-34.5 -203z" />
<glyph unicode=":" horiz-adv-x="553" d="M111 137q0 79 42 121.5t123 42.5t123.5 -42.5t42.5 -121.5q0 -78 -43.5 -120.5t-122.5 -42.5q-80 0 -122.5 42.5t-42.5 120.5zM111 973q0 79 42 121.5t123 42.5t123.5 -42.5t42.5 -121.5q0 -78 -43.5 -121t-122.5 -43q-80 0 -122.5 43t-42.5 121z" />
<glyph unicode=";" horiz-adv-x="553" d="M51 -263q66 271 101 501h264l14 -23q-53 -203 -176 -478h-203zM111 973q0 79 42 121.5t123 42.5t123.5 -42.5t42.5 -121.5q0 -78 -43.5 -121t-122.5 -43q-80 0 -122.5 43t-42.5 121z" />
<glyph unicode="&#x3c;" horiz-adv-x="918" d="M106 645v156l705 434v-225l-487 -287l487 -289v-225z" />
<glyph unicode="=" horiz-adv-x="918" d="M106 422v207h705v-207h-705zM106 815v205h705v-205h-705z" />
<glyph unicode="&#x3e;" horiz-adv-x="918" d="M106 209v225l490 289l-490 287v225l705 -434v-156z" />
<glyph unicode="?" horiz-adv-x="782" d="M25 1376q158 107 348 107q165 0 260 -92q96 -91 96 -254q0 -115 -33 -194q-32 -77 -137 -191q-66 -72 -86 -113q-18 -39 -18 -107v-61h-236v70q0 95 29 167q27 65 108 154q73 78 94 127q21 47 21 117q0 68 -31 107.5t-94 39.5q-108 0 -227 -77zM172 137q0 79 42.5 121.5 t123.5 42.5t123.5 -43t42.5 -121q0 -77 -43 -120t-123 -43t-123 42.5t-43 120.5z" />
<glyph unicode="@" horiz-adv-x="1485" d="M74 594q2 262 89 462q89 201 254 311q164 110 374 110q293 0 457 -192q163 -191 163 -537q0 -244 -83 -381q-82 -136 -230 -136q-69 0 -121 38.5t-68 101.5h-8q-35 -65 -88.5 -102.5t-120.5 -37.5q-125 0 -193.5 94t-68.5 279q0 222 98 356q99 134 265 134q120 0 256 -43 l-21 -466v-38q0 -80 17 -112t55 -32q50 0 79 93q29 96 29 254q0 271 -109 409.5t-313 138.5q-150 0 -265 -88q-117 -89 -179 -248q-63 -159 -63 -358q0 -280 122 -436q121 -156 338 -156q177 0 365 90v-181q-158 -85 -367 -88q-303 -3 -484.5 204.5t-178.5 556.5zM637 604 q0 -96 22.5 -148.5t65.5 -52.5q49 0 73.5 66.5t32.5 212.5l13 229q-25 11 -62 11q-64 0 -105 -90q-40 -89 -40 -228z" />
<glyph unicode="A" horiz-adv-x="1094" d="M0 0l362 1468h369l363 -1468h-273l-84 369h-381l-84 -369h-272zM410 610h276l-78 340q-2 8 -32 155q-25 130 -29 167q-14 -92 -33 -190q-17 -88 -104 -472z" />
<glyph unicode="B" horiz-adv-x="1038" d="M129 0v1462h373q228 0 332 -88.5t104 -281.5q0 -128 -55 -213t-150 -103v-10q122 -30 178 -114.5t56 -227.5q0 -199 -107 -312q-106 -112 -291 -112h-440zM385 238h137q85 0 126.5 52.5t41.5 160.5q0 196 -172 196h-133v-409zM385 874h125q84 0 120 44.5t36 138.5 q0 90 -39.5 130t-126.5 40h-115v-353z" />
<glyph unicode="C" d="M84 729q0 356 136 555t380 199q159 0 311 -99l-90 -221q-57 39 -105 60.5t-102 21.5q-117 0 -185 -137q-67 -135 -67 -381q0 -508 265 -508q115 0 243 74v-242q-106 -70 -274 -70q-248 0 -380 195q-132 196 -132 553z" />
<glyph unicode="D" horiz-adv-x="1143" d="M129 0v1462h391q254 0 397 -189q142 -187 142 -528q0 -363 -148 -554q-147 -191 -424 -191h-358zM401 238h88q148 0 219.5 124t71.5 375q0 490 -270 490h-109v-989z" />
<glyph unicode="E" horiz-adv-x="872" d="M129 0v1462h659v-235h-387v-348h359v-236h-359v-405h387v-238h-659z" />
<glyph unicode="F" horiz-adv-x="838" d="M129 0v1462h655v-235h-385v-406h359v-235h-359v-586h-270z" />
<glyph unicode="G" horiz-adv-x="1112" d="M84 733q0 352 157 551t441 199q175 0 334 -90l-86 -222q-125 72 -232 72q-155 0 -246 -139q-90 -138 -90 -377q0 -247 65.5 -377.5t190.5 -130.5q64 0 134 17v335h-181v240h447v-750q-188 -80 -404 -80q-255 0 -393 193q-137 194 -137 559z" />
<glyph unicode="H" horiz-adv-x="1161" d="M129 0v1462h272v-581h359v581h272v-1462h-272v641h-359v-641h-272z" />
<glyph unicode="I" horiz-adv-x="614" d="M178 0v1462h256v-1462h-256z" />
<glyph unicode="J" horiz-adv-x="530" d="M-153 -159q66 -20 123 -20q159 0 159 210v1431h272v-1417q0 -213 -108 -341q-106 -125 -274 -125h-5q-111 2 -167 25v237z" />
<glyph unicode="K" horiz-adv-x="1040" d="M129 0v1462h272v-725l95 219l249 506h291l-338 -633l342 -829h-290l-240 625l-109 -109v-516h-272z" />
<glyph unicode="L" horiz-adv-x="823" d="M129 0v1462h272v-1224h377v-238h-649z" />
<glyph unicode="M" horiz-adv-x="1606" d="M129 0v1462h418l250 -1149h8l248 1149h424v-1462h-258v991q0 118 14 252h-8l-277 -1243h-297l-278 1245h-11q19 -140 19 -264v-981h-252z" />
<glyph unicode="N" horiz-adv-x="1282" d="M129 0v1462h334l448 -1048h11q-19 102 -19 250v798h250v-1462h-332l-452 1059h-13q25 -119 25 -260v-799h-252z" />
<glyph unicode="O" horiz-adv-x="1219" d="M84 735q0 363 136 556q137 194 392 194q253 0 388 -195q135 -194 135 -557q0 -364 -136 -558t-389 -194q-254 0 -390 193q-136 194 -136 561zM362 733q0 -250 63 -381t185 -131q246 0 246 512t-244 512q-123 0 -186.5 -130t-63.5 -382z" />
<glyph unicode="P" horiz-adv-x="981" d="M129 0v1462h371q426 0 426 -450q0 -233 -117.5 -357.5t-339.5 -124.5h-68v-530h-272zM401 766h52q101 0 149.5 55.5t48.5 179.5q0 115 -45 170.5t-139 55.5h-66v-461z" />
<glyph unicode="Q" horiz-adv-x="1219" d="M84 735q0 363 136 556q137 194 392 194q253 0 388 -195q135 -194 135 -557q0 -510 -263 -682l269 -398h-314l-202 328h-15q-254 0 -390 193q-136 194 -136 561zM362 733q0 -250 63 -381t185 -131q246 0 246 512t-244 512q-123 0 -186.5 -130t-63.5 -382z" />
<glyph unicode="R" horiz-adv-x="1024" d="M129 0v1462h356q225 0 333 -107t108 -327q0 -278 -187 -387l281 -641h-291l-231 569h-97v-569h-272zM401 803h70q94 0 137 53.5t43 163.5t-44 158.5t-138 48.5h-68v-424z" />
<glyph unicode="S" horiz-adv-x="846" d="M68 55v269q164 -107 301 -107q77 0 117 42t40 118q0 72 -47 133q-46 61 -155 135q-96 66 -143 124q-101 123 -101 306q0 188 104 298q105 110 281 110q169 0 323 -94l-90 -218q-125 72 -213 72q-65 0 -101 -43t-36 -119q0 -73 42 -129q43 -55 149 -125q145 -97 199 -196 q57 -101 57 -228q0 -205 -103.5 -313.5t-298.5 -108.5q-193 0 -325 74z" />
<glyph unicode="T" horiz-adv-x="885" d="M27 1223v239h831v-239h-280v-1223h-271v1223h-280z" />
<glyph unicode="U" horiz-adv-x="1151" d="M123 520v942h270v-962q0 -279 185 -279q86 0 133 71t47 202v968h270v-946q0 -261 -118 -398t-341 -137q-219 0 -332.5 136.5t-113.5 402.5z" />
<glyph unicode="V" horiz-adv-x="1032" d="M0 1462h274l191 -893q27 -131 51 -327q20 177 53 327l189 893h274l-344 -1462h-346z" />
<glyph unicode="W" horiz-adv-x="1622" d="M18 1462h267l131 -825q20 -128 51 -389q25 261 47 383l156 831h282l156 -831q28 -147 49 -385q31 264 51 391l127 825h269l-263 -1462h-340l-143 766q-35 185 -47 371l-8 -74l-41 -301l-139 -762h-340z" />
<glyph unicode="X" horiz-adv-x="969" d="M0 0l334 760l-309 702h274l193 -481l167 481h285l-309 -714l334 -748h-283l-209 524l-194 -524h-283z" />
<glyph unicode="Y" horiz-adv-x="961" d="M0 1462h287l194 -577l195 577h285l-347 -876v-586h-268v575z" />
<glyph unicode="Z" horiz-adv-x="877" d="M43 0v190l467 1035h-453v237h762v-190l-467 -1034h482v-238h-791z" />
<glyph unicode="[" horiz-adv-x="649" d="M133 -323v1785h469v-198h-223v-1388h223v-199h-469z" />
<glyph unicode="\" horiz-adv-x="829" d="M14 1462h258l545 -1462h-258z" />
<glyph unicode="]" horiz-adv-x="649" d="M47 -124h223v1388h-223v198h469v-1785h-469v199z" />
<glyph unicode="^" horiz-adv-x="1090" d="M14 526l437 944h135l493 -944h-225l-330 660l-288 -660h-222z" />
<glyph unicode="_" horiz-adv-x="696" d="M-3 -183h703v-140h-703v140z" />
<glyph unicode="`" horiz-adv-x="1114" d="M311 1548v21h318q31 -69 80 -156q49 -88 92 -145v-27h-187q-80 64 -176 160q-103 103 -127 147z" />
<glyph unicode="a" horiz-adv-x="956" d="M55 328q0 175 95.5 261.5t289.5 94.5l148 6v80q0 156 -135 156q-99 0 -230 -78l-92 184q166 105 361 105q176 0 269 -101t93 -288v-748h-195l-53 152h-6q-58 -97 -122 -135q-63 -36 -159 -36q-124 0 -194 91t-70 256zM330 326q0 -138 98 -138q73 0 116.5 65.5t43.5 174.5 v94l-82 -4q-90 -4 -133 -51.5t-43 -140.5z" />
<glyph unicode="b" horiz-adv-x="1016" d="M113 0v1556h266v-364q0 -31 -1 -48q-3 -47 -13 -175h14q47 90 103.5 128t133.5 38q152 0 239 -151t87 -425q0 -277 -88 -428q-86 -150 -242 -150q-77 0 -134 33t-107 113h-17l-45 -127h-196zM379 561q0 -195 34 -273q34 -79 113 -79q144 0 144 354q0 346 -146 346 q-75 0 -110 -71q-35 -75 -35 -250v-27z" />
<glyph unicode="c" horiz-adv-x="760" d="M74 551q0 295 99 439.5t304 144.5q140 0 252 -70l-76 -207q-82 49 -147 49q-84 0 -122 -87t-38 -267q0 -176 37.5 -260t120.5 -84q100 0 209 70v-234q-104 -64 -232 -64q-199 0 -303 144.5t-104 425.5z" />
<glyph unicode="d" horiz-adv-x="1016" d="M74 555q0 271 87 426q87 154 240 154q77 0 132 -38t102 -126h16q-12 151 -12 213v372h266v-1556h-198l-45 145h-9q-85 -164 -247 -164q-155 0 -243 151q-89 152 -89 423zM348 551q0 -175 34.5 -260.5t109.5 -85.5q74 0 108 67q37 72 37 246v35q0 192 -35 273 q-34 79 -113 79q-141 0 -141 -354z" />
<glyph unicode="e" horiz-adv-x="942" d="M74 549q0 277 109 431q110 155 304 155q182 0 287 -133q105 -132 105 -371v-142h-535q3 -147 60 -220.5t161 -73.5q129 0 266 81v-219q-127 -76 -307 -76q-210 0 -330 147q-120 148 -120 421zM348 682h270q-2 121 -37 184.5t-96 63.5q-59 0 -95 -62.5t-42 -185.5z" />
<glyph unicode="f" horiz-adv-x="612" d="M29 903v133l129 80v84q0 188 78 277.5t247 89.5q108 0 201 -45l-70 -203q-50 24 -102 24q-46 0 -67 -36t-21 -111v-82h184v-211h-184v-903h-266v903h-129z" />
<glyph unicode="g" horiz-adv-x="936" d="M18 -181q0 93 57 163t158 102q-53 21 -84.5 63t-31.5 97q0 35 10 61q11 29 28 52q19 25 76 73q-68 42 -109 129q-40 86 -40 193q0 184 96 283.5t275 99.5q32 0 78 -8t67 -15h317v-156l-133 -30q39 -70 39 -176q0 -176 -96 -277q-96 -100 -268 -100q-48 0 -74 8 q-17 -16 -26 -25.5t-18 -27.5t-9 -37q0 -70 121 -70h161q143 0 219 -77t76 -229q0 -195 -130.5 -300.5t-373.5 -105.5q-185 0 -285 80.5t-100 229.5zM260 -161q0 -66 41.5 -101.5t118.5 -35.5q119 0 180.5 45t61.5 127q0 64 -33 89q-32 26 -121 26h-129q-54 0 -86.5 -40.5 t-32.5 -109.5zM342 750q0 -197 111 -197q108 0 108 199q0 204 -108 204q-111 0 -111 -206z" />
<glyph unicode="h" horiz-adv-x="1038" d="M113 0v1556h266v-346q0 -66 -12 -239h14q80 164 246 164q153 0 231 -103.5t78 -304.5v-727h-268v664q0 245 -123 245q-89 0 -127.5 -93t-38.5 -281v-535h-266z" />
<glyph unicode="i" horiz-adv-x="496" d="M104 1405q0 66 38.5 104.5t107.5 38.5q65 0 104 -38.5t39 -104.5q0 -67 -39.5 -105t-103.5 -38q-67 0 -106.5 38t-39.5 105zM115 0v1114h266v-1114h-266z" />
<glyph unicode="j" horiz-adv-x="500" d="M-58 -245q47 -18 85 -18q94 0 94 170v1207h266v-1242q0 -174 -80.5 -268.5t-226.5 -94.5q-84 0 -138 25v221zM111 1405q0 66 38.5 104.5t106.5 38.5q66 0 104.5 -38.5t38.5 -104.5t-38.5 -104.5t-104.5 -38.5t-105.5 37.5t-39.5 105.5z" />
<glyph unicode="k" horiz-adv-x="965" d="M113 0v1556h266v-733l-12 -223h8l67 133l220 381h282l-282 -457l301 -657h-279l-201 471l-104 -94v-377h-266z" />
<glyph unicode="l" horiz-adv-x="489" d="M113 0v1556h266v-1556h-266z" />
<glyph unicode="m" horiz-adv-x="1589" d="M113 0v1114h211l32 -143h17q38 82 106.5 123t151.5 41q205 0 272 -193h10q85 193 273 193q148 0 224.5 -104t76.5 -304v-727h-268v664q0 245 -121 245q-87 0 -125.5 -87t-38.5 -281v-541h-268v664q0 245 -123 245q-86 0 -125 -87t-39 -287v-535h-266z" />
<glyph unicode="n" horiz-adv-x="1038" d="M113 0v1114h211l32 -143h17q36 78 103.5 121t156.5 43q303 0 303 -408v-727h-268v664q0 123 -29.5 184t-93.5 61q-85 0 -126 -86q-40 -84 -40 -288v-535h-266z" />
<glyph unicode="o" horiz-adv-x="1012" d="M74 559q2 274 115 423q115 153 319 153q196 0 313 -156q117 -157 117 -420q0 -273 -116 -427q-114 -149 -318 -151h-5q-189 0 -307 157q-118 156 -118 412v9zM346 559q0 -177 38.5 -264.5t121.5 -87.5q160 0 160 352q0 176 -38.5 262t-121.5 86t-121.5 -85.5 t-38.5 -262.5z" />
<glyph unicode="p" horiz-adv-x="1016" d="M113 -491v1605h206l46 -145h12q82 166 241 166q153 0 238 -151q86 -151 86 -425q0 -270 -89 -425q-88 -153 -243 -153q-74 0 -129 33.5t-102 112.5h-14q16 -132 16 -163v-455h-268zM379 561q0 -185 35.5 -268.5t115.5 -83.5q140 0 140 354q0 346 -142 346q-79 0 -114 -73 t-35 -240v-35z" />
<glyph unicode="q" horiz-adv-x="1016" d="M74 555q0 272 86 426q87 154 239 154q79 0 136 -38.5t102 -125.5h14l29 143h225v-1605h-266v469q0 35 12 167h-10q-80 -164 -235 -164q-156 0 -244 151t-88 423zM348 551q0 -178 33.5 -263t105.5 -85q79 0 113 72q37 79 37 241v37q0 185 -35 268.5t-115 83.5 q-139 0 -139 -354z" />
<glyph unicode="r" horiz-adv-x="690" d="M113 0v1114h219l30 -174h9q44 104 95.5 149.5t121.5 45.5q50 0 96 -15l-31 -258q-27 10 -73 10q-97 0 -149 -76.5t-52 -222.5v-573h-266z" />
<glyph unicode="s" horiz-adv-x="766" d="M61 45v231q57 -38 128 -63q72 -25 130 -25q61 0 94 30t33 81q0 52 -34 89q-36 39 -125 93q-120 72 -173 153.5t-53 192.5q0 143 97 225q98 83 268 83q148 0 279 -78l-87 -191q-106 58 -188 58q-49 0 -75.5 -26t-26.5 -67q0 -46 31 -80q30 -33 118 -87q104 -63 146 -107 q88 -93 88 -231q0 -165 -96.5 -255t-280.5 -90q-166 0 -273 64z" />
<glyph unicode="t" horiz-adv-x="664" d="M33 903v119l139 96l68 236h170v-240h202v-211h-202v-586q0 -112 90 -112q58 0 121 28v-208q-65 -44 -195 -44q-144 0 -214.5 85.5t-70.5 259.5v577h-108z" />
<glyph unicode="u" horiz-adv-x="1038" d="M102 387v727h269v-663q0 -124 29.5 -185t93.5 -61q86 0 125 86q40 84 40 289v534h269v-1114h-213l-33 143h-14q-37 -76 -106 -119t-156 -43q-304 0 -304 406z" />
<glyph unicode="v" horiz-adv-x="913" d="M0 1114h276l142 -645q2 -7 21 -132q14 -101 16 -124h4q2 43 8 86q3 23 16 103q5 33 154 712h276l-292 -1114h-330z" />
<glyph unicode="w" horiz-adv-x="1479" d="M20 1114h267l102 -614q19 -119 33 -299h6q1 47 14 161q13 120 17 140l110 612h342l109 -614q20 -110 33 -299h4q13 174 35 299l106 614h260l-223 -1114h-346l-111 647l-39 273h-4q-15 -132 -24 -193q-13 -87 -127 -727h-342z" />
<glyph unicode="x" horiz-adv-x="889" d="M14 0l291 569l-278 545h276l148 -340l137 340h274l-280 -545l292 -569h-278l-158 356l-147 -356h-277z" />
<glyph unicode="y" horiz-adv-x="913" d="M0 1114h276l154 -629q25 -100 37 -235h6q1 23 9 85l13 97q5 37 138 682h280l-319 -1193q-59 -221 -154 -316q-96 -96 -256 -96q-78 0 -141 17v223q40 -12 92 -12q66 0 109 44t67 132l19 70z" />
<glyph unicode="z" horiz-adv-x="731" d="M41 0v170l342 729h-320v215h613v-188l-332 -711h346v-215h-649z" />
<glyph unicode="{" horiz-adv-x="737" d="M25 457v223q128 0 193 41t65 131v8v320q0 159 92 218.5t330 63.5v-211q-100 -3 -138 -38q-37 -34 -37 -107v-303q0 -193 -231 -228v-12q231 -35 231 -215v-12v-303q0 -73 36 -107q38 -35 139 -38v-211q-239 3 -330.5 63t-91.5 220v316q0 96 -65 138.5t-193 42.5z" />
<glyph unicode="|" horiz-adv-x="1038" d="M416 -470v2022h207v-2022h-207z" />
<glyph unicode="}" horiz-adv-x="737" d="M33 -112q101 3 139 38q37 34 37 107v303v9q0 90 59.5 145.5t173.5 72.5v12q-233 35 -233 228v303q0 74 -37 108t-139 37v211q235 0 329 -64q95 -63 95 -218v-320v-8q0 -90 64 -131t192 -41v-223q-129 0 -192.5 -42.5t-63.5 -138.5v-316q0 -154 -96 -219q-96 -64 -328 -64 v211z" />
<glyph unicode="~" horiz-adv-x="918" d="M74 557v219q90 109 207 109q41 0 80 -11q44 -12 124 -53q67 -35 99 -45q30 -10 73 -10q87 0 187 121v-219q-81 -109 -207 -109q-81 0 -207 64q-76 38 -108 48q-24 7 -58 7q-88 0 -190 -121z" />
<glyph unicode="&#xa1;" horiz-adv-x="555" d="M111 954q0 78 43.5 121t119.5 43q81 0 124.5 -43t43.5 -121q0 -79 -43 -121t-125 -42q-78 0 -120.5 42t-42.5 121zM113 -368l51 989h221l51 -989h-323z" />
<glyph unicode="&#xa2;" d="M147 737q0 253 73.5 395.5t225.5 178.5v168h166v-160q106 -16 193 -66l-78 -209q-86 50 -147 50q-84 0 -122 -86.5t-38 -268.5q0 -174 37.5 -259t120.5 -85q100 0 208 72v-234q-78 -51 -174 -61v-191h-166v199q-299 80 -299 557z" />
<glyph unicode="&#xa3;" d="M76 0v229q93 50 124 108q33 60 33 157v157h-155v203h155v219q0 199 93.5 304.5t271.5 105.5q157 0 283 -72l-84 -211q-92 53 -183 53q-114 0 -114 -186v-213h241v-203h-241v-133q0 -182 -131 -276h534v-242h-827z" />
<glyph unicode="&#xa4;" horiz-adv-x="1112" d="M90 1051l137 137l127 -127q92 55 201 55q107 0 199 -57l129 129l139 -133l-129 -129q55 -92 55 -203q0 -115 -55 -203l125 -125l-135 -135l-129 125q-94 -53 -199 -53q-120 0 -203 53l-125 -123l-135 135l127 125q-57 92 -57 201q0 102 57 201zM356 723q0 -83 58 -141 t141 -58q86 0 144 58q59 59 59 141q0 83 -59 142t-144 59q-83 0 -141 -58t-58 -143z" />
<glyph unicode="&#xa5;" d="M6 1462h283l186 -618l184 618h283l-276 -751h186v-170h-244v-142h244v-170h-244v-229h-266v229h-246v170h246v142h-246v170h187z" />
<glyph unicode="&#xa6;" horiz-adv-x="1038" d="M416 338h207v-808h-207v808zM416 743v809h207v-809h-207z" />
<glyph unicode="&#xa7;" horiz-adv-x="872" d="M82 23v192q152 -72 295 -72q82 0 121 28.5t39 90.5q0 34 -31.5 67t-102.5 73q-148 84 -198 130q-111 102 -111 244q0 78 34 142t95 104q-59 39 -91 105t-32 143q0 133 92 211q93 78 254 78q154 0 326 -70l-65 -184q-55 23 -87 35.5t-81.5 24t-94.5 11.5q-56 0 -85 -27.5 t-29 -74.5q0 -37 31.5 -70.5t103.5 -75.5l84 -49q127 -74 177 -149q52 -77 52 -178q0 -167 -125 -260q59 -43 87 -92t28 -119q0 -149 -94.5 -232t-270.5 -83q-201 0 -321 57zM307 797q0 -56 32 -94q31 -37 114 -87l61 -36q43 61 43 137q0 62 -48 118t-136 99 q-28 -17 -47 -54t-19 -83z" />
<glyph unicode="&#xa8;" horiz-adv-x="1130" d="M233 1403q0 61 35 95t97 34t97.5 -35.5t35.5 -93.5t-35.5 -92.5t-97.5 -34.5t-97 33.5t-35 93.5zM631 1403q0 60 35 94.5t98 34.5q61 0 97 -34.5t36 -94.5q0 -59 -35.5 -93t-97.5 -34t-97.5 34.5t-35.5 92.5z" />
<glyph unicode="&#xa9;" horiz-adv-x="1688" d="M92 731q0 200 100 375q101 176 275 276q176 101 377 101q198 0 370 -97q175 -99 277 -272q104 -176 104 -383q0 -204 -101 -377q-100 -172 -273 -273q-172 -100 -377 -100q-209 0 -382 102q-175 103 -273 277q-97 172 -97 371zM227 731q0 -164 83 -309q82 -142 225 -225 q142 -82 309 -82t309 82q143 83 225 225t82 309q0 166 -82 308q-83 144 -225 226q-143 83 -309 83q-164 0 -309 -83q-144 -83 -226 -225t-82 -309zM457 733q0 219 110 341t307 122q141 0 295 -74l-71 -161q-111 57 -211 57q-102 0 -157.5 -75.5t-55.5 -211.5 q0 -144 51 -216.5t162 -72.5q59 0 124 16q69 17 115 42v-181q-114 -55 -245 -55q-202 0 -313 123t-111 346z" />
<glyph unicode="&#xaa;" horiz-adv-x="682" d="M57 977q0 108 66.5 162t212.5 61l82 4v8q0 119 -103 119q-68 0 -163 -57l-56 127q128 78 256 78q115 0 174.5 -68t59.5 -194v-447h-117l-27 104q-68 -116 -190 -116q-92 0 -143.5 54.5t-51.5 164.5zM229 979q0 -78 64 -78q58 0 91.5 40.5t33.5 111.5v39l-72 -7 q-59 -5 -88 -30.5t-29 -75.5z" />
<glyph unicode="&#xab;" horiz-adv-x="1141" d="M74 543v26l307 447l199 -111l-220 -348l220 -348l-199 -111zM561 543v26l307 447l199 -111l-219 -348l219 -348l-199 -111z" />
<glyph unicode="&#xac;" horiz-adv-x="918" d="M106 618v207h705v-575h-195v368h-510z" />
<glyph unicode="&#xad;" horiz-adv-x="647" d="M72 432v234h503v-234h-503z" />
<glyph unicode="&#xae;" horiz-adv-x="1688" d="M92 731q0 200 100 375q101 176 275 276q176 101 377 101q198 0 370 -97q175 -99 277 -272q104 -176 104 -383q0 -204 -101 -377q-100 -172 -273 -273q-172 -100 -377 -100q-209 0 -382 102q-175 103 -273 277q-97 172 -97 371zM227 731q0 -164 83 -309q82 -142 225 -225 q142 -82 309 -82t309 82q143 83 225 225t82 309q0 166 -82 308q-83 144 -225 226q-143 83 -309 83q-164 0 -309 -83q-144 -83 -226 -225t-82 -309zM543 274v912h258q179 0 262.5 -67.5t83.5 -211.5q0 -170 -148 -233l19 -29l219 -371h-238l-184 342h-57v-342h-215zM758 776 h39q71 0 102 29.5t31 97.5t-32 94.5t-103 26.5h-37v-248z" />
<glyph unicode="&#xaf;" horiz-adv-x="1024" d="M-5 1556v189h1035v-189h-1035z" />
<glyph unicode="&#xb0;" horiz-adv-x="831" d="M76 1143q0 139 99 239q99 101 241 101q139 0 239 -100q101 -101 101 -240q0 -141 -99 -240q-100 -98 -241 -98q-144 0 -242 98t-98 240zM252 1143q0 -67 49 -115q50 -47 115 -47t114 47q48 48 48 115q0 68 -48 116q-46 48 -114 48q-67 0 -116 -49q-48 -50 -48 -115z" />
<glyph unicode="&#xb1;" horiz-adv-x="918" d="M106 0v207h705v-207h-705zM106 618v207h254v373h197v-373h254v-207h-254v-368h-197v368h-254z" />
<glyph unicode="&#xb2;" horiz-adv-x="688" d="M49 1356q127 127 289 127q122 0 191 -66.5t69 -183.5q0 -81 -39 -154q-35 -69 -160 -200l-102 -107h326v-186h-570v157l199 222q96 108 122 153q27 46 27 99q0 41 -23.5 64.5t-62.5 23.5q-75 0 -163 -88z" />
<glyph unicode="&#xb3;" horiz-adv-x="688" d="M57 1374q70 58 135.5 82.5t141.5 24.5q110 0 182 -63t72 -167q0 -149 -148 -200v-11q86 -20 130 -76.5t44 -132.5q0 -123 -79 -192.5t-228 -69.5q-155 0 -244 56v176q106 -72 230 -72q135 0 135 117q0 112 -154 112h-98v150h84q74 0 111 28t37 89q0 44 -24.5 69t-70.5 25 q-43 0 -81 -18t-89 -60z" />
<glyph unicode="&#xb4;" horiz-adv-x="1114" d="M311 1241v27q40 52 95 151q56 101 77 150h318v-21q-23 -41 -119 -139q-90 -90 -184 -168h-187z" />
<glyph unicode="&#xb5;" horiz-adv-x="1038" d="M102 -491v1605h269v-700q0 -112 29.5 -160.5t93.5 -48.5q86 0 125 86q40 84 40 289v534h269v-1114h-213l-33 143h-16q-62 -162 -199 -162q-59 0 -105 39q9 -129 9 -271v-240h-269z" />
<glyph unicode="&#xb6;" horiz-adv-x="1083" d="M63 1042q0 260 81.5 387t254.5 127h549v-1815h-153v1623h-162v-1623h-154v818q-45 -18 -106 -18q-159 0 -234.5 124t-75.5 377z" />
<glyph unicode="&#xb7;" horiz-adv-x="553" d="M111 723q0 79 42 121.5t123 42.5t123.5 -42.5t42.5 -121.5q0 -78 -43.5 -121t-122.5 -43q-80 0 -122.5 43t-42.5 121z" />
<glyph unicode="&#xb8;" horiz-adv-x="416" d="M-24 -316q62 -17 120 -17q88 0 88 66q0 85 -157 110l79 157h173l-37 -75q71 -18 113 -65t42 -119q0 -110 -72.5 -171t-218.5 -61q-73 0 -130 21v154z" />
<glyph unicode="&#xb9;" horiz-adv-x="688" d="M66 1235l272 227h162v-876h-197v461l3 112l5 96q-8 -12 -22 -24l-131 -113z" />
<glyph unicode="&#xba;" horiz-adv-x="686" d="M61 1120q0 170 75 264q75 95 208 95q128 0 204 -97q77 -97 77 -262q0 -172 -76 -267q-77 -95 -207 -95q-131 0 -206 98q-75 97 -75 264zM233 1120q0 -209 111 -209q57 0 83 51t26 158q0 106 -26 155.5t-83 49.5t-84 -49.5t-27 -155.5z" />
<glyph unicode="&#xbb;" horiz-adv-x="1141" d="M74 209l219 348l-219 348l198 111l308 -447v-26l-308 -445zM561 209l219 348l-219 348l199 111l307 -447v-26l-307 -445z" />
<glyph unicode="&#xbc;" horiz-adv-x="1597" d="M60 1235l272 227h162v-876h-197v461l3 112l5 96q-8 -12 -22 -24l-131 -113zM277 0l741 1462h204l-742 -1462h-203zM829 161v146l347 577h194v-563h111v-160h-111v-159h-196v159h-345zM987 321h187v170l4 187q-10 -27 -35 -84q-25 -56 -35 -72z" />
<glyph unicode="&#xbd;" horiz-adv-x="1597" d="M60 1235l272 227h162v-876h-197v461l3 112l5 96q-8 -12 -22 -24l-131 -113zM277 0l741 1462h204l-742 -1462h-203zM944 772q127 127 289 127q122 0 191 -66.5t69 -183.5q0 -81 -39 -154q-35 -69 -160 -200l-102 -107h326v-186h-570v157l199 222q96 108 122 153 q27 46 27 99q0 41 -23 64.5t-63 23.5q-75 0 -163 -88z" />
<glyph unicode="&#xbe;" horiz-adv-x="1597" d="M61 1374q70 58 135.5 82.5t141.5 24.5q110 0 182 -63t72 -167q0 -149 -148 -200v-11q86 -20 130 -76.5t44 -132.5q0 -123 -79 -192.5t-228 -69.5q-155 0 -244 56v176q107 -72 230 -72q135 0 135 117q0 112 -154 112h-98v150h84q74 0 111 28t37 89q0 44 -24.5 69t-70.5 25 q-43 0 -81 -18t-89 -60zM312 0l741 1462h204l-742 -1462h-203zM835 161v146l347 577h194v-563h111v-160h-111v-159h-196v159h-345zM993 321h187v170l4 187q-10 -27 -35 -84q-25 -56 -35 -72z" />
<glyph unicode="&#xbf;" horiz-adv-x="782" d="M53 -44q0 72 14 133q13 56 44 109q30 53 112 142q65 69 85 111q20 43 20 108v62h235v-72q0 -94 -30 -166q-28 -70 -107 -156q-75 -83 -95 -127q-20 -48 -20 -115q0 -66 32 -106t93 -40q109 0 226 78l96 -201q-157 -106 -348 -106q-168 0 -262 91q-95 90 -95 255zM279 954 q0 78 43.5 121t119.5 43q81 0 124.5 -43t43.5 -121q0 -79 -43 -121t-125 -42q-78 0 -120.5 42t-42.5 121z" />
<glyph unicode="&#xc0;" horiz-adv-x="1094" d="M0 0l362 1468h369l363 -1468h-273l-84 369h-381l-84 -369h-272zM194 1886v21h318q31 -69 80 -156q49 -88 92 -145v-27h-187q-80 64 -176 160q-103 103 -127 147zM410 610h276l-78 340q-2 8 -32 155q-25 130 -29 167q-14 -92 -33 -190q-17 -88 -104 -472z" />
<glyph unicode="&#xc1;" horiz-adv-x="1094" d="M0 0l362 1468h369l363 -1468h-273l-84 369h-381l-84 -369h-272zM405 1579v27q40 52 95 151q56 101 77 150h318v-21q-23 -41 -119 -139q-90 -90 -184 -168h-187zM410 610h276l-78 340q-2 8 -32 155q-25 130 -29 167q-14 -92 -33 -190q-17 -88 -104 -472z" />
<glyph unicode="&#xc2;" horiz-adv-x="1094" d="M0 0l362 1468h369l363 -1468h-273l-84 369h-381l-84 -369h-272zM193 1579v27q176 223 217 301h277q44 -82 217 -301v-27h-168q-97 73 -189 178q-87 -99 -186 -178h-168zM410 610h276l-78 340q-2 8 -32 155q-25 130 -29 167q-14 -92 -33 -190q-17 -88 -104 -472z" />
<glyph unicode="&#xc3;" horiz-adv-x="1094" d="M0 0l362 1468h369l363 -1468h-273l-84 369h-381l-84 -369h-272zM211 1577q11 150 67.5 225.5t151.5 75.5q39 0 77.5 -16.5t64.5 -36.5t58 -36.5t58 -16.5q32 0 48 24.5t28 83.5h141q-11 -149 -68.5 -225t-150.5 -76q-40 0 -78.5 16.5t-64 37t-56.5 37t-57 16.5 q-32 0 -50.5 -24.5t-27.5 -84.5h-141zM410 610h276l-78 340q-2 8 -32 155q-25 130 -29 167q-14 -92 -33 -190q-17 -88 -104 -472z" />
<glyph unicode="&#xc4;" horiz-adv-x="1094" d="M0 0l362 1468h369l363 -1468h-273l-84 369h-381l-84 -369h-272zM217 1741q0 61 35 95t97 34t97.5 -35.5t35.5 -93.5t-35.5 -92.5t-97.5 -34.5t-97 33.5t-35 93.5zM410 610h276l-78 340q-2 8 -32 155q-25 130 -29 167q-14 -92 -33 -190q-17 -88 -104 -472zM615 1741 q0 60 35 94.5t98 34.5q61 0 97 -34.5t36 -94.5q0 -59 -35.5 -93t-97.5 -34t-97.5 34.5t-35.5 92.5z" />
<glyph unicode="&#xc5;" horiz-adv-x="1094" d="M0 0l362 1468h369l363 -1468h-273l-84 369h-381l-84 -369h-272zM303 1569q0 109 67 170q68 63 177 63t179 -64q71 -65 71 -167q0 -108 -70 -172q-68 -64 -180 -64q-109 0 -177 62q-67 63 -67 172zM410 610h276l-78 340q-2 8 -32 155q-25 130 -29 167q-14 -92 -33 -190 q-17 -88 -104 -472zM447 1569q0 -48 25.5 -74.5t74.5 -26.5q44 0 72 27.5t28 73.5q0 45 -28.5 72.5t-71.5 27.5t-71.5 -27.5t-28.5 -72.5z" />
<glyph unicode="&#xc6;" horiz-adv-x="1425" d="M0 0l473 1462h866v-235h-383v-348h355v-236h-355v-405h383v-238h-655v369h-299l-113 -369h-272zM461 610h223v617h-39l-14 -49z" />
<glyph unicode="&#xc7;" d="M84 729q0 356 136 555t380 199q159 0 311 -99l-90 -221q-57 39 -105 60.5t-102 21.5q-117 0 -185 -137q-67 -135 -67 -381q0 -508 265 -508q115 0 243 74v-242q-106 -70 -274 -70q-248 0 -380 195q-132 196 -132 553zM326 -316q62 -17 120 -17q88 0 88 66q0 85 -157 110 l79 157h173l-37 -75q71 -18 113 -65t42 -119q0 -110 -72.5 -171t-218.5 -61q-73 0 -130 21v154z" />
<glyph unicode="&#xc8;" horiz-adv-x="872" d="M90 1886v21h318q31 -69 80 -156q49 -88 92 -145v-27h-187q-80 64 -176 160q-103 103 -127 147zM129 0v1462h659v-235h-387v-348h359v-236h-359v-405h387v-238h-659z" />
<glyph unicode="&#xc9;" horiz-adv-x="872" d="M129 0v1462h659v-235h-387v-348h359v-236h-359v-405h387v-238h-659zM336 1579v27q40 52 95 151q56 101 77 150h318v-21q-23 -41 -119 -139q-90 -90 -184 -168h-187z" />
<glyph unicode="&#xca;" horiz-adv-x="872" d="M104 1579v27q176 223 217 301h277q44 -82 217 -301v-27h-168q-97 73 -189 178q-87 -99 -186 -178h-168zM129 0v1462h659v-235h-387v-348h359v-236h-359v-405h387v-238h-659z" />
<glyph unicode="&#xcb;" horiz-adv-x="872" d="M129 0v1462h659v-235h-387v-348h359v-236h-359v-405h387v-238h-659zM131 1741q0 61 35 95t97 34t97.5 -35.5t35.5 -93.5t-35.5 -92.5t-97.5 -34.5t-97 33.5t-35 93.5zM529 1741q0 60 35 94.5t98 34.5q61 0 97 -34.5t36 -94.5q0 -59 -35.5 -93t-97.5 -34t-97.5 34.5 t-35.5 92.5z" />
<glyph unicode="&#xcc;" horiz-adv-x="614" d="M-49 1886v21h318q31 -69 80 -156q49 -88 92 -145v-27h-187q-80 64 -176 160q-103 103 -127 147zM178 0v1462h256v-1462h-256z" />
<glyph unicode="&#xcd;" horiz-adv-x="614" d="M168 1579v27q40 52 95 151q56 101 77 150h318v-21q-23 -41 -119 -139q-90 -90 -184 -168h-187zM178 0v1462h256v-1462h-256z" />
<glyph unicode="&#xce;" horiz-adv-x="614" d="M-47 1579v27q176 223 217 301h277q44 -82 217 -301v-27h-168q-97 73 -189 178q-87 -99 -186 -178h-168zM178 0v1462h256v-1462h-256z" />
<glyph unicode="&#xcf;" horiz-adv-x="614" d="M-23 1741q0 61 35 95t97 34t97.5 -35.5t35.5 -93.5t-35.5 -92.5t-97.5 -34.5t-97 33.5t-35 93.5zM178 0v1462h256v-1462h-256zM375 1741q0 60 35 94.5t98 34.5q61 0 97 -34.5t36 -94.5q0 -59 -35.5 -93t-97.5 -34t-97.5 34.5t-35.5 92.5z" />
<glyph unicode="&#xd0;" horiz-adv-x="1143" d="M0 604v238h129v620h391q254 0 397 -189q142 -187 142 -528q0 -363 -148 -554q-147 -191 -424 -191h-358v604h-129zM401 238h88q148 0 219.5 124t71.5 375q0 490 -270 490h-109v-385h183v-238h-183v-366z" />
<glyph unicode="&#xd1;" horiz-adv-x="1282" d="M129 0v1462h334l448 -1048h11q-19 102 -19 250v798h250v-1462h-332l-452 1059h-13q25 -119 25 -260v-799h-252zM303 1577q11 150 67.5 225.5t151.5 75.5q39 0 77.5 -16.5t64.5 -36.5t58 -36.5t58 -16.5q32 0 48 24.5t28 83.5h141q-11 -149 -68.5 -225t-150.5 -76 q-40 0 -78.5 16.5t-64 37t-56.5 37t-57 16.5q-32 0 -50.5 -24.5t-27.5 -84.5h-141z" />
<glyph unicode="&#xd2;" horiz-adv-x="1219" d="M84 735q0 363 136 556q137 194 392 194q253 0 388 -195q135 -194 135 -557q0 -364 -136 -558t-389 -194q-254 0 -390 193q-136 194 -136 561zM245 1886v21h318q31 -69 80 -156q49 -88 92 -145v-27h-187q-80 64 -176 160q-103 103 -127 147zM362 733q0 -250 63 -381 t185 -131q246 0 246 512t-244 512q-123 0 -186.5 -130t-63.5 -382z" />
<glyph unicode="&#xd3;" horiz-adv-x="1219" d="M84 735q0 363 136 556q137 194 392 194q253 0 388 -195q135 -194 135 -557q0 -364 -136 -558t-389 -194q-254 0 -390 193q-136 194 -136 561zM362 733q0 -250 63 -381t185 -131q246 0 246 512t-244 512q-123 0 -186.5 -130t-63.5 -382zM477 1579v27q40 52 95 151 q56 101 77 150h318v-21q-23 -41 -119 -139q-90 -90 -184 -168h-187z" />
<glyph unicode="&#xd4;" horiz-adv-x="1219" d="M84 735q0 363 136 556q137 194 392 194q253 0 388 -195q135 -194 135 -557q0 -364 -136 -558t-389 -194q-254 0 -390 193q-136 194 -136 561zM252 1579v27q176 223 217 301h277q44 -82 217 -301v-27h-168q-97 73 -189 178q-87 -99 -186 -178h-168zM362 733 q0 -250 63 -381t185 -131q246 0 246 512t-244 512q-123 0 -186.5 -130t-63.5 -382z" />
<glyph unicode="&#xd5;" horiz-adv-x="1219" d="M84 735q0 363 136 556q137 194 392 194q253 0 388 -195q135 -194 135 -557q0 -364 -136 -558t-389 -194q-254 0 -390 193q-136 194 -136 561zM272 1577q11 150 67.5 225.5t151.5 75.5q39 0 77.5 -16.5t64.5 -36.5t58 -36.5t58 -16.5q32 0 48 24.5t28 83.5h141 q-11 -149 -68.5 -225t-150.5 -76q-40 0 -78.5 16.5t-64 37t-56.5 37t-57 16.5q-32 0 -50.5 -24.5t-27.5 -84.5h-141zM362 733q0 -250 63 -381t185 -131q246 0 246 512t-244 512q-123 0 -186.5 -130t-63.5 -382z" />
<glyph unicode="&#xd6;" horiz-adv-x="1219" d="M84 735q0 363 136 556q137 194 392 194q253 0 388 -195q135 -194 135 -557q0 -364 -136 -558t-389 -194q-254 0 -390 193q-136 194 -136 561zM276 1741q0 61 35 95t97 34t97.5 -35.5t35.5 -93.5t-35.5 -92.5t-97.5 -34.5t-97 33.5t-35 93.5zM362 733q0 -250 63 -381 t185 -131q246 0 246 512t-244 512q-123 0 -186.5 -130t-63.5 -382zM674 1741q0 60 35 94.5t98 34.5q61 0 97 -34.5t36 -94.5q0 -59 -35.5 -93t-97.5 -34t-97.5 34.5t-35.5 92.5z" />
<glyph unicode="&#xd7;" horiz-adv-x="918" d="M92 389l246 334l-246 330l152 112l213 -282l215 282l151 -112l-245 -330l245 -334l-151 -113l-215 289l-213 -289z" />
<glyph unicode="&#xd8;" horiz-adv-x="1219" d="M84 735q0 363 136 556q137 194 392 194q136 0 252 -68l72 142l166 -76l-101 -197q134 -193 134 -553q0 -364 -136 -558t-389 -194q-134 0 -241 56l-70 -138l-166 77l96 186q-145 193 -145 573zM362 733q0 -158 21 -266l371 729q-52 49 -142 49q-123 0 -186.5 -130 t-63.5 -382zM481 260q48 -39 129 -39q246 0 246 512q0 152 -12 236z" />
<glyph unicode="&#xd9;" horiz-adv-x="1151" d="M123 520v942h270v-962q0 -279 185 -279q86 0 133 71t47 202v968h270v-946q0 -261 -118 -398t-341 -137q-219 0 -332.5 136.5t-113.5 402.5zM211 1886v21h318q31 -69 80 -156q49 -88 92 -145v-27h-187q-80 64 -176 160q-103 103 -127 147z" />
<glyph unicode="&#xda;" horiz-adv-x="1151" d="M123 520v942h270v-962q0 -279 185 -279q86 0 133 71t47 202v968h270v-946q0 -261 -118 -398t-341 -137q-219 0 -332.5 136.5t-113.5 402.5zM444 1579v27q40 52 95 151q56 101 77 150h318v-21q-23 -41 -119 -139q-90 -90 -184 -168h-187z" />
<glyph unicode="&#xdb;" horiz-adv-x="1151" d="M123 520v942h270v-962q0 -279 185 -279q86 0 133 71t47 202v968h270v-946q0 -261 -118 -398t-341 -137q-219 0 -332.5 136.5t-113.5 402.5zM219 1579v27q176 223 217 301h277q44 -82 217 -301v-27h-168q-97 73 -189 178q-87 -99 -186 -178h-168z" />
<glyph unicode="&#xdc;" horiz-adv-x="1151" d="M123 520v942h270v-962q0 -279 185 -279q86 0 133 71t47 202v968h270v-946q0 -261 -118 -398t-341 -137q-219 0 -332.5 136.5t-113.5 402.5zM243 1741q0 61 35 95t97 34t97.5 -35.5t35.5 -93.5t-35.5 -92.5t-97.5 -34.5t-97 33.5t-35 93.5zM641 1741q0 60 35 94.5t98 34.5 q61 0 97 -34.5t36 -94.5q0 -59 -35.5 -93t-97.5 -34t-97.5 34.5t-35.5 92.5z" />
<glyph unicode="&#xdd;" horiz-adv-x="961" d="M0 1462h287l194 -577l195 577h285l-347 -876v-586h-268v575zM346 1579v27q40 52 95 151q56 101 77 150h318v-21q-23 -41 -119 -139q-90 -90 -184 -168h-187z" />
<glyph unicode="&#xde;" horiz-adv-x="981" d="M129 0v1462h272v-233h97q428 0 428 -451q0 -234 -117.5 -358.5t-339.5 -124.5h-68v-295h-272zM401 530h52q101 0 149.5 57t48.5 181q0 227 -182 227h-68v-465z" />
<glyph unicode="&#xdf;" horiz-adv-x="1108" d="M113 0v1151q0 201 112 308.5t320 107.5q197 0 307 -85q111 -86 111 -237q0 -154 -106 -263l-51 -53q-56 -59 -56 -93q0 -35 26 -69q28 -34 127 -114q95 -77 128 -147q34 -69 34 -168q0 -169 -100 -263t-283 -94q-138 0 -231 52v225q104 -70 208 -70q134 0 134 129 q0 54 -27 95q-30 45 -115 110q-91 70 -128 129q-38 64 -38 148q0 62 24.5 113t79.5 105q56 55 80 96q23 41 23 87q0 69 -39 107.5t-112 38.5q-162 0 -162 -203v-1143h-266z" />
<glyph unicode="&#xe0;" horiz-adv-x="956" d="M55 328q0 175 95.5 261.5t289.5 94.5l148 6v80q0 156 -135 156q-99 0 -230 -78l-92 184q166 105 361 105q176 0 269 -101t93 -288v-748h-195l-53 152h-6q-58 -97 -122 -135q-63 -36 -159 -36q-124 0 -194 91t-70 256zM147 1548v21h318q31 -69 80 -156q49 -88 92 -145v-27 h-187q-80 64 -176 160q-103 103 -127 147zM330 326q0 -138 98 -138q73 0 116.5 65.5t43.5 174.5v94l-82 -4q-90 -4 -133 -51.5t-43 -140.5z" />
<glyph unicode="&#xe1;" horiz-adv-x="956" d="M55 328q0 175 95.5 261.5t289.5 94.5l148 6v80q0 156 -135 156q-99 0 -230 -78l-92 184q166 105 361 105q176 0 269 -101t93 -288v-748h-195l-53 152h-6q-58 -97 -122 -135q-63 -36 -159 -36q-124 0 -194 91t-70 256zM330 326q0 -138 98 -138q73 0 116.5 65.5t43.5 174.5 v94l-82 -4q-90 -4 -133 -51.5t-43 -140.5zM362 1241v27q40 52 95 151q56 101 77 150h318v-21q-23 -41 -119 -139q-90 -90 -184 -168h-187z" />
<glyph unicode="&#xe2;" horiz-adv-x="956" d="M55 328q0 175 95.5 261.5t289.5 94.5l148 6v80q0 156 -135 156q-99 0 -230 -78l-92 184q166 105 361 105q176 0 269 -101t93 -288v-748h-195l-53 152h-6q-58 -97 -122 -135q-63 -36 -159 -36q-124 0 -194 91t-70 256zM141 1241v27q176 223 217 301h277q44 -82 217 -301 v-27h-168q-97 73 -189 178q-87 -99 -186 -178h-168zM330 326q0 -138 98 -138q73 0 116.5 65.5t43.5 174.5v94l-82 -4q-90 -4 -133 -51.5t-43 -140.5z" />
<glyph unicode="&#xe3;" horiz-adv-x="956" d="M55 328q0 175 95.5 261.5t289.5 94.5l148 6v80q0 156 -135 156q-99 0 -230 -78l-92 184q166 105 361 105q176 0 269 -101t93 -288v-748h-195l-53 152h-6q-58 -97 -122 -135q-63 -36 -159 -36q-124 0 -194 91t-70 256zM162 1239q11 150 67.5 225.5t151.5 75.5 q39 0 77.5 -16.5t64.5 -36.5t58 -36.5t58 -16.5q32 0 48 24.5t28 83.5h141q-11 -149 -68.5 -225t-150.5 -76q-40 0 -78.5 16.5t-64 37t-56.5 37t-57 16.5q-32 0 -50.5 -24.5t-27.5 -84.5h-141zM330 326q0 -138 98 -138q73 0 116.5 65.5t43.5 174.5v94l-82 -4 q-90 -4 -133 -51.5t-43 -140.5z" />
<glyph unicode="&#xe4;" horiz-adv-x="956" d="M55 328q0 175 95.5 261.5t289.5 94.5l148 6v80q0 156 -135 156q-99 0 -230 -78l-92 184q166 105 361 105q176 0 269 -101t93 -288v-748h-195l-53 152h-6q-58 -97 -122 -135q-63 -36 -159 -36q-124 0 -194 91t-70 256zM165 1403q0 61 35 95t97 34t97.5 -35.5t35.5 -93.5 t-35.5 -92.5t-97.5 -34.5t-97 33.5t-35 93.5zM330 326q0 -138 98 -138q73 0 116.5 65.5t43.5 174.5v94l-82 -4q-90 -4 -133 -51.5t-43 -140.5zM563 1403q0 60 35 94.5t98 34.5q61 0 97 -34.5t36 -94.5q0 -59 -35.5 -93t-97.5 -34t-97.5 34.5t-35.5 92.5z" />
<glyph unicode="&#xe5;" horiz-adv-x="956" d="M55 328q0 175 95.5 261.5t289.5 94.5l148 6v80q0 156 -135 156q-99 0 -230 -78l-92 184q166 105 361 105q176 0 269 -101t93 -288v-748h-195l-53 152h-6q-58 -97 -122 -135q-63 -36 -159 -36q-124 0 -194 91t-70 256zM250 1473q0 109 67 170q67 63 177 63q109 0 179 -64 q71 -65 71 -167q0 -108 -70 -172q-68 -64 -180 -64q-109 0 -177 62q-67 63 -67 172zM330 326q0 -138 98 -138q73 0 116.5 65.5t43.5 174.5v94l-82 -4q-90 -4 -133 -51.5t-43 -140.5zM394 1473q0 -48 25.5 -74.5t74.5 -26.5q44 0 72 27.5t28 73.5q0 45 -28.5 72.5t-71.5 27.5 t-71.5 -27.5t-28.5 -72.5z" />
<glyph unicode="&#xe6;" horiz-adv-x="1446" d="M55 328q0 175 95.5 261.5t289.5 94.5l148 6v78q0 158 -135 158q-99 0 -230 -78l-92 184q166 105 361 105q165 0 258 -93q98 91 241 91q183 0 287 -134t104 -370v-142h-534q3 -147 60 -220.5t161 -73.5q135 0 266 81v-219q-127 -76 -307 -76q-232 0 -344 179 q-57 -93 -132.5 -136t-180.5 -43q-154 0 -235 88.5t-81 258.5zM330 326q0 -138 98 -138q73 0 116.5 65.5t43.5 174.5v94l-82 -4q-90 -4 -133 -51.5t-43 -140.5zM854 682h270q-2 121 -37 184.5t-96 63.5q-125 0 -137 -248z" />
<glyph unicode="&#xe7;" horiz-adv-x="760" d="M74 551q0 295 99 439.5t304 144.5q140 0 252 -70l-76 -207q-82 49 -147 49q-84 0 -122 -87t-38 -267q0 -176 37.5 -260t120.5 -84q100 0 209 70v-234q-104 -64 -232 -64q-199 0 -303 144.5t-104 425.5zM222 -316q62 -17 120 -17q88 0 88 66q0 85 -157 110l79 157h173 l-37 -75q71 -18 113 -65t42 -119q0 -110 -72.5 -171t-218.5 -61q-73 0 -130 21v154z" />
<glyph unicode="&#xe8;" horiz-adv-x="942" d="M74 549q0 277 109 431q110 155 304 155q182 0 287 -133q105 -132 105 -371v-142h-535q3 -147 60 -220.5t161 -73.5q129 0 266 81v-219q-127 -76 -307 -76q-210 0 -330 147q-120 148 -120 421zM145 1548v21h318q31 -69 80 -156q49 -88 92 -145v-27h-187q-80 64 -176 160 q-103 103 -127 147zM348 682h270q-2 121 -37 184.5t-96 63.5q-59 0 -95 -62.5t-42 -185.5z" />
<glyph unicode="&#xe9;" horiz-adv-x="942" d="M74 549q0 277 109 431q110 155 304 155q182 0 287 -133q105 -132 105 -371v-142h-535q3 -147 60 -220.5t161 -73.5q129 0 266 81v-219q-127 -76 -307 -76q-210 0 -330 147q-120 148 -120 421zM348 682h270q-2 121 -37 184.5t-96 63.5q-59 0 -95 -62.5t-42 -185.5z M348 1241v27q40 52 95 151q56 101 77 150h318v-21q-23 -41 -119 -139q-90 -90 -184 -168h-187z" />
<glyph unicode="&#xea;" horiz-adv-x="942" d="M74 549q0 277 109 431q110 155 304 155q182 0 287 -133q105 -132 105 -371v-142h-535q3 -147 60 -220.5t161 -73.5q129 0 266 81v-219q-127 -76 -307 -76q-210 0 -330 147q-120 148 -120 421zM133 1241v27q176 223 217 301h277q44 -82 217 -301v-27h-168q-97 73 -189 178 q-87 -99 -186 -178h-168zM348 682h270q-2 121 -37 184.5t-96 63.5q-59 0 -95 -62.5t-42 -185.5z" />
<glyph unicode="&#xeb;" horiz-adv-x="942" d="M74 549q0 277 109 431q110 155 304 155q182 0 287 -133q105 -132 105 -371v-142h-535q3 -147 60 -220.5t161 -73.5q129 0 266 81v-219q-127 -76 -307 -76q-210 0 -330 147q-120 148 -120 421zM157 1403q0 61 35 95t97 34t97.5 -35.5t35.5 -93.5t-35.5 -92.5t-97.5 -34.5 t-97 33.5t-35 93.5zM348 682h270q-2 121 -37 184.5t-96 63.5q-59 0 -95 -62.5t-42 -185.5zM555 1403q0 60 35 94.5t98 34.5q61 0 97 -34.5t36 -94.5q0 -59 -35.5 -93t-97.5 -34t-97.5 34.5t-35.5 92.5z" />
<glyph unicode="&#xec;" horiz-adv-x="496" d="M-109 1548v21h318q31 -69 80 -156q49 -88 92 -145v-27h-187q-80 64 -176 160q-103 103 -127 147zM115 0v1114h266v-1114h-266z" />
<glyph unicode="&#xed;" horiz-adv-x="496" d="M114 1241v27q40 52 95 151q56 101 77 150h318v-21q-23 -41 -119 -139q-90 -90 -184 -168h-187zM115 0v1114h266v-1114h-266z" />
<glyph unicode="&#xee;" horiz-adv-x="496" d="M-109 1241v27q176 223 217 301h277q44 -82 217 -301v-27h-168q-97 73 -189 178q-87 -99 -186 -178h-168zM115 0v1114h266v-1114h-266z" />
<glyph unicode="&#xef;" horiz-adv-x="496" d="M-84 1403q0 61 35 95t97 34t97.5 -35.5t35.5 -93.5t-35.5 -92.5t-97.5 -34.5t-97 33.5t-35 93.5zM115 0v1114h266v-1114h-266zM314 1403q0 60 35 94.5t98 34.5q61 0 97 -34.5t36 -94.5q0 -59 -35.5 -93t-97.5 -34t-97.5 34.5t-35.5 92.5z" />
<glyph unicode="&#xf0;" horiz-adv-x="1012" d="M74 483q0 241 100 374q101 134 285 134q121 0 205 -117l12 3q-47 176 -182 317l-220 -145l-96 145l193 123q-51 39 -154 96l94 158q149 -77 234 -144l207 140l94 -144l-170 -110q262 -274 262 -744q0 -275 -115 -432q-113 -156 -321 -156q-198 0 -313 134 q-115 136 -115 368zM346 483q0 -133 41.5 -204.5t120.5 -71.5q83 0 120.5 79.5t37.5 243.5q0 116 -42 183t-114 67q-86 0 -125 -72.5t-39 -224.5z" />
<glyph unicode="&#xf1;" horiz-adv-x="1038" d="M113 0v1114h211l32 -143h17q36 78 103.5 121t156.5 43q303 0 303 -408v-727h-268v664q0 123 -29.5 184t-93.5 61q-85 0 -126 -86q-40 -84 -40 -288v-535h-266zM184 1239q11 150 67.5 225.5t151.5 75.5q39 0 77.5 -16.5t64.5 -36.5t58 -36.5t58 -16.5q32 0 48 24.5 t28 83.5h141q-11 -149 -68.5 -225t-150.5 -76q-40 0 -78.5 16.5t-64 37t-56.5 37t-57 16.5q-32 0 -50.5 -24.5t-27.5 -84.5h-141z" />
<glyph unicode="&#xf2;" horiz-adv-x="1012" d="M74 559q2 274 115 423q115 153 319 153q196 0 313 -156q117 -157 117 -420q0 -273 -116 -427q-114 -149 -318 -151q-193 -2 -312.5 157t-117.5 421zM157 1548v21h318q31 -69 80 -156q49 -88 92 -145v-27h-187q-80 64 -176 160q-103 103 -127 147zM346 559 q0 -177 38.5 -264.5t121.5 -87.5q160 0 160 352q0 176 -38.5 262t-121.5 86t-121.5 -85.5t-38.5 -262.5z" />
<glyph unicode="&#xf3;" horiz-adv-x="1012" d="M74 559q2 274 115 423q115 153 319 153q196 0 313 -156q117 -157 117 -420q0 -273 -116 -427q-114 -149 -318 -151q-193 -2 -312.5 157t-117.5 421zM346 559q0 -177 38.5 -264.5t121.5 -87.5q160 0 160 352q0 176 -38.5 262t-121.5 86t-121.5 -85.5t-38.5 -262.5z M366 1241v27q40 52 95 151q56 101 77 150h318v-21q-23 -41 -119 -139q-90 -90 -184 -168h-187z" />
<glyph unicode="&#xf4;" horiz-adv-x="1012" d="M74 559q2 274 115 423q115 153 319 153q196 0 313 -156q117 -157 117 -420q0 -273 -116 -427q-114 -149 -318 -151q-193 -2 -312.5 157t-117.5 421zM152 1241v27q176 223 217 301h277q44 -82 217 -301v-27h-168q-97 73 -189 178q-87 -99 -186 -178h-168zM346 559 q0 -177 38.5 -264.5t121.5 -87.5q160 0 160 352q0 176 -38.5 262t-121.5 86t-121.5 -85.5t-38.5 -262.5z" />
<glyph unicode="&#xf5;" horiz-adv-x="1012" d="M74 559q2 274 115 423q115 153 319 153q196 0 313 -156q117 -157 117 -420q0 -273 -116 -427q-114 -149 -318 -151q-193 -2 -312.5 157t-117.5 421zM170 1239q11 150 67.5 225.5t151.5 75.5q39 0 77.5 -16.5t64.5 -36.5t58 -36.5t58 -16.5q32 0 48 24.5t28 83.5h141 q-11 -149 -68.5 -225t-150.5 -76q-40 0 -78.5 16.5t-64 37t-56.5 37t-57 16.5q-32 0 -50.5 -24.5t-27.5 -84.5h-141zM346 559q0 -177 38.5 -264.5t121.5 -87.5q160 0 160 352q0 176 -38.5 262t-121.5 86t-121.5 -85.5t-38.5 -262.5z" />
<glyph unicode="&#xf6;" horiz-adv-x="1012" d="M74 559q2 274 115 423q115 153 319 153q196 0 313 -156q117 -157 117 -420q0 -273 -116 -427q-114 -149 -318 -151q-193 -2 -312.5 157t-117.5 421zM176 1403q0 61 35 95t97 34t97.5 -35.5t35.5 -93.5t-35.5 -92.5t-97.5 -34.5t-97 33.5t-35 93.5zM346 559 q0 -177 38.5 -264.5t121.5 -87.5q160 0 160 352q0 176 -38.5 262t-121.5 86t-121.5 -85.5t-38.5 -262.5zM574 1403q0 60 35 94.5t98 34.5q61 0 97 -34.5t36 -94.5q0 -59 -35.5 -93t-97.5 -34t-97.5 34.5t-35.5 92.5z" />
<glyph unicode="&#xf7;" horiz-adv-x="918" d="M106 618v207h705v-207h-705zM332 373q0 145 125 145q60 0 91.5 -37.5t31.5 -107.5q0 -68 -32.5 -107t-90.5 -39q-57 0 -91 36t-34 110zM332 1071q0 146 125 146q123 0 123 -146q0 -67 -33 -106t-90 -39t-91 35.5t-34 109.5z" />
<glyph unicode="&#xf8;" horiz-adv-x="1012" d="M74 559q0 272 115 423q115 153 319 153q97 0 176 -41l51 96l160 -74l-72 -141q115 -148 115 -416q0 -273 -116 -427q-115 -151 -318 -151q-91 0 -166 35l-57 -111l-162 76l78 150q-123 154 -123 428zM338 486l2 -70l244 475q-33 16 -78 16q-168 0 -168 -348v-73zM438 219 q26 -12 68 -12q85 0 130.5 90.5t39.5 261.5l-4 117z" />
<glyph unicode="&#xf9;" horiz-adv-x="1038" d="M102 387v727h269v-663q0 -124 29.5 -185t93.5 -61q86 0 125 86q40 84 40 289v534h269v-1114h-213l-33 143h-14q-37 -76 -106 -119t-156 -43q-304 0 -304 406zM161 1548v21h318q31 -69 80 -156q49 -88 92 -145v-27h-187q-80 64 -176 160q-103 103 -127 147z" />
<glyph unicode="&#xfa;" horiz-adv-x="1038" d="M102 387v727h269v-663q0 -124 29.5 -185t93.5 -61q86 0 125 86q40 84 40 289v534h269v-1114h-213l-33 143h-14q-37 -76 -106 -119t-156 -43q-304 0 -304 406zM381 1241v27q40 52 95 151q56 101 77 150h318v-21q-23 -41 -119 -139q-90 -90 -184 -168h-187z" />
<glyph unicode="&#xfb;" horiz-adv-x="1038" d="M102 387v727h269v-663q0 -124 29.5 -185t93.5 -61q86 0 125 86q40 84 40 289v534h269v-1114h-213l-33 143h-14q-37 -76 -106 -119t-156 -43q-304 0 -304 406zM164 1241v27q176 223 217 301h277q44 -82 217 -301v-27h-168q-97 73 -189 178q-87 -99 -186 -178h-168z" />
<glyph unicode="&#xfc;" horiz-adv-x="1038" d="M102 387v727h269v-663q0 -124 29.5 -185t93.5 -61q86 0 125 86q40 84 40 289v534h269v-1114h-213l-33 143h-14q-37 -76 -106 -119t-156 -43q-304 0 -304 406zM186 1403q0 61 35 95t97 34t97.5 -35.5t35.5 -93.5t-35.5 -92.5t-97.5 -34.5t-97 33.5t-35 93.5zM584 1403 q0 60 35 94.5t98 34.5q61 0 97 -34.5t36 -94.5q0 -59 -35.5 -93t-97.5 -34t-97.5 34.5t-35.5 92.5z" />
<glyph unicode="&#xfd;" horiz-adv-x="913" d="M0 1114h276l154 -629q25 -100 37 -235h6q1 23 9 85l13 97q5 37 138 682h280l-319 -1193q-59 -221 -154 -316q-96 -96 -256 -96q-78 0 -141 17v223q40 -12 92 -12q66 0 109 44t67 132l19 70zM311 1241v27q40 52 95 151q56 101 77 150h318v-21q-23 -41 -119 -139 q-90 -90 -184 -168h-187z" />
<glyph unicode="&#xfe;" horiz-adv-x="1016" d="M113 -491v2047h266v-364q0 -31 -1 -48q-3 -47 -13 -175h14q47 90 104 128t135 38q153 0 238 -151q86 -151 86 -425q0 -270 -89 -425q-88 -153 -245 -153q-72 0 -127.5 34t-101.5 112h-14q16 -132 16 -163v-455h-268zM379 561q0 -185 35.5 -268.5t115.5 -83.5 q140 0 140 354q0 346 -142 346q-79 0 -114 -73t-35 -240v-35z" />
<glyph unicode="&#xff;" horiz-adv-x="913" d="M0 1114h276l154 -629q25 -100 37 -235h6q1 23 9 85l13 97q5 37 138 682h280l-319 -1193q-59 -221 -154 -316q-96 -96 -256 -96q-78 0 -141 17v223q40 -12 92 -12q66 0 109 44t67 132l19 70zM126 1403q0 61 35 95t97 34t97.5 -35.5t35.5 -93.5t-35.5 -92.5t-97.5 -34.5 t-97 33.5t-35 93.5zM524 1403q0 60 35 94.5t98 34.5q61 0 97 -34.5t36 -94.5q0 -59 -35.5 -93t-97.5 -34t-97.5 34.5t-35.5 92.5z" />
<glyph unicode="&#x152;" horiz-adv-x="1446" d="M84 735q0 363 136 556q137 194 392 194q80 0 158 -23h590v-235h-383v-348h354v-236h-354v-405h383v-238h-600q-81 -19 -150 -19q-254 0 -390 193q-136 194 -136 561zM362 733q0 -250 63 -381t185 -131q54 0 95 15v995q-48 14 -93 14q-123 0 -186.5 -130t-63.5 -382z" />
<glyph unicode="&#x153;" horiz-adv-x="1532" d="M74 559q2 274 115 423q115 153 319 153q173 0 289 -140q107 140 282 140q181 0 285 -134t104 -370v-142h-532q3 -146 60 -220t159 -74q131 0 268 81v-219q-130 -76 -307 -76q-198 0 -313 140q-113 -138 -299 -140q-193 -2 -312.5 157t-117.5 421zM346 559 q0 -177 38.5 -264.5t121.5 -87.5q160 0 160 352q0 176 -38.5 262t-121.5 86t-121.5 -85.5t-38.5 -262.5zM940 682h270q-2 121 -37 184.5t-96 63.5q-59 0 -95 -62.5t-42 -185.5z" />
<glyph unicode="&#x178;" horiz-adv-x="961" d="M0 1462h287l194 -577l195 577h285l-347 -876v-586h-268v575zM151 1741q0 61 35 95t97 34t97.5 -35.5t35.5 -93.5t-35.5 -92.5t-97.5 -34.5t-97 33.5t-35 93.5zM549 1741q0 60 35 94.5t98 34.5q61 0 97 -34.5t36 -94.5q0 -59 -35.5 -93t-97.5 -34t-97.5 34.5t-35.5 92.5z " />
<glyph unicode="&#x2c6;" horiz-adv-x="1135" d="M211 1241v27q176 223 217 301h277q44 -82 217 -301v-27h-168q-97 73 -189 178q-87 -99 -186 -178h-168z" />
<glyph unicode="&#x2dc;" horiz-adv-x="1135" d="M221 1239q11 150 67.5 225.5t151.5 75.5q39 0 77.5 -16.5t64.5 -36.5t58 -36.5t58 -16.5q32 0 48 24.5t28 83.5h141q-11 -149 -68.5 -225t-150.5 -76q-40 0 -78.5 16.5t-64 37t-56.5 37t-57 16.5q-32 0 -50.5 -24.5t-27.5 -84.5h-141z" />
<glyph unicode="&#x2000;" horiz-adv-x="953" />
<glyph unicode="&#x2001;" horiz-adv-x="1907" />
<glyph unicode="&#x2002;" horiz-adv-x="953" />
<glyph unicode="&#x2003;" horiz-adv-x="1907" />
<glyph unicode="&#x2004;" horiz-adv-x="635" />
<glyph unicode="&#x2005;" horiz-adv-x="476" />
<glyph unicode="&#x2006;" horiz-adv-x="317" />
<glyph unicode="&#x2007;" horiz-adv-x="317" />
<glyph unicode="&#x2008;" horiz-adv-x="238" />
<glyph unicode="&#x2009;" horiz-adv-x="381" />
<glyph unicode="&#x200a;" horiz-adv-x="105" />
<glyph unicode="&#x2010;" horiz-adv-x="647" d="M72 432v234h503v-234h-503z" />
<glyph unicode="&#x2011;" horiz-adv-x="647" d="M72 432v234h503v-234h-503z" />
<glyph unicode="&#x2012;" horiz-adv-x="647" d="M72 432v234h503v-234h-503z" />
<glyph unicode="&#x2013;" horiz-adv-x="973" d="M70 442v217h833v-217h-833z" />
<glyph unicode="&#x2014;" horiz-adv-x="1579" d="M70 442v217h1437v-217h-1437z" />
<glyph unicode="&#x2018;" horiz-adv-x="420" d="M20 983q27 102 73 228q47 128 104 251h202q-28 -112 -61 -277q-30 -151 -39 -224h-264z" />
<glyph unicode="&#x2019;" horiz-adv-x="420" d="M20 961q62 246 101 501h264l14 -22q-49 -195 -176 -479h-203z" />
<glyph unicode="&#x201a;" horiz-adv-x="553" d="M51 -263q66 271 101 501h264l14 -23q-53 -203 -176 -478h-203z" />
<glyph unicode="&#x201c;" horiz-adv-x="854" d="M20 983q27 102 73 228q47 128 104 251h202q-28 -112 -61 -277q-30 -151 -39 -224h-264zM455 983q33 124 83 254q52 137 93 225h203q-67 -272 -101 -501h-264z" />
<glyph unicode="&#x201d;" horiz-adv-x="854" d="M20 961q62 246 101 501h264l14 -22q-49 -195 -176 -479h-203zM455 961q64 256 100 501h264l15 -22q-50 -193 -177 -479h-202z" />
<glyph unicode="&#x201e;" horiz-adv-x="987" d="M51 -263q66 271 101 501h264l14 -23q-53 -203 -176 -478h-203zM485 -263q66 271 101 501h264l14 -23q-53 -203 -176 -478h-203z" />
<glyph unicode="&#x2022;" horiz-adv-x="750" d="M98 748q0 148 71.5 227.5t205.5 79.5q132 0 204 -80.5t72 -226.5q0 -145 -73 -226.5t-203 -81.5q-132 0 -204.5 80.5t-72.5 227.5z" />
<glyph unicode="&#x2026;" horiz-adv-x="1659" d="M111 137q0 79 42 121.5t123 42.5t123.5 -42.5t42.5 -121.5q0 -78 -43.5 -120.5t-122.5 -42.5q-80 0 -122.5 42.5t-42.5 120.5zM664 137q0 79 42 121.5t123 42.5t123.5 -42.5t42.5 -121.5q0 -78 -43.5 -120.5t-122.5 -42.5q-80 0 -122.5 42.5t-42.5 120.5zM1217 137 q0 79 42 121.5t123 42.5t123.5 -42.5t42.5 -121.5q0 -78 -43.5 -120.5t-122.5 -42.5q-80 0 -122.5 42.5t-42.5 120.5z" />
<glyph unicode="&#x202f;" horiz-adv-x="381" />
<glyph unicode="&#x2039;" horiz-adv-x="653" d="M74 543v26l307 447l199 -111l-220 -348l220 -348l-199 -111z" />
<glyph unicode="&#x203a;" horiz-adv-x="653" d="M74 209l219 348l-219 348l198 111l308 -447v-26l-308 -445z" />
<glyph unicode="&#x205f;" horiz-adv-x="476" />
<glyph unicode="&#x20ac;" d="M41 487v168h117v123h-117v168h129q38 262 161.5 400.5t315.5 138.5q86 0 150.5 -16.5t130.5 -53.5l-90 -215q-97 47 -179 47q-84 0 -140 -77t-79 -224h295v-168h-309v-123h264v-168h-248q51 -268 232 -268q108 0 233 74v-242q-109 -70 -262 -70q-195 0 -315.5 129 t-157.5 377h-131z" />
<glyph unicode="&#x2122;" horiz-adv-x="1366" d="M12 1321v141h494v-141h-170v-580h-154v580h-170zM553 741v721h242l106 -489l117 489h239v-721h-153v452l2 81h-4l-127 -533h-148l-122 533h-7l4 -189v-344h-149z" />
<glyph unicode="&#x25fc;" horiz-adv-x="1115" d="M0 0v1115h1115v-1115h-1115z" />
<glyph unicode="&#xfb01;" horiz-adv-x="1108" d="M29 903v133l129 80v84q0 188 78 277.5t247 89.5q108 0 201 -45l-70 -203q-50 24 -102 24q-46 0 -67 -36t-21 -111v-82h184v-211h-184v-903h-266v903h-129zM716 1405q0 66 38.5 104.5t107.5 38.5q65 0 104 -38.5t39 -104.5q0 -67 -39.5 -105t-103.5 -38q-67 0 -106.5 38 t-39.5 105zM727 0v1114h266v-1114h-266z" />
<glyph unicode="&#xfb02;" horiz-adv-x="1102" d="M29 903v133l129 80v84q0 188 78 277.5t247 89.5q108 0 201 -45l-70 -203q-50 24 -102 24q-46 0 -67 -36t-21 -111v-82h184v-211h-184v-903h-266v903h-129zM725 0v1556h266v-1556h-266z" />
<glyph unicode="&#xfb03;" horiz-adv-x="1737" d="M29 903v133l129 80v84q0 188 78 277.5t247 89.5q108 0 201 -45l-70 -203q-50 24 -102 24q-46 0 -67 -36t-21 -111v-82h184v-211h-184v-903h-266v903h-129zM658 903v133l129 80v84q0 188 78 277.5t247 89.5q108 0 201 -45l-70 -203q-49 24 -102 24q-46 0 -67 -36t-21 -111 v-82h184v-211h-184v-903h-266v903h-129zM1345 1405q0 66 38.5 104.5t107.5 38.5q65 0 104 -38.5t39 -104.5q0 -67 -39.5 -105t-103.5 -38q-67 0 -106.5 38t-39.5 105zM1356 0v1114h266v-1114h-266z" />
<glyph unicode="&#xfb04;" horiz-adv-x="1731" d="M29 903v133l129 80v84q0 188 78 277.5t247 89.5q108 0 201 -45l-70 -203q-50 24 -102 24q-46 0 -67 -36t-21 -111v-82h184v-211h-184v-903h-266v903h-129zM658 903v133l129 80v84q0 188 78 277.5t247 89.5q108 0 201 -45l-70 -203q-49 24 -102 24q-46 0 -67 -36t-21 -111 v-82h184v-211h-184v-903h-266v903h-129zM1354 0v1556h266v-1556h-266z" />
</font>
</defs>
</svg>
